Two and a Half Men All Season | 720p & 1080p WEBRip x265-BvS

Two and a Half Men

Charlie is a well-to-do bachelor with a house at the beach, a Jaguar in the front, and an easy way with women. His casual Malibu lifestyle is interrupted when his tightly wound brother Alan, who’s facing a divorce, and his son Jake, come to live with him. Together, these two and a half men confront the challenges of growing up; finally. Complicating matters are the brothers’ self-obsessed, controlling mother, Evelyn, Alan’s estranged wife, Judith and Charlie’s crazy neighbor Rose, who wants to be a part of his life and is willing to do anything to be around. After the death of his brother, Alan Harper meets and befriends a lonely young man named Walden Schmidt who turns out to be a billionaire. Unable to afford his brother’s home, Alan sells Walden the house, and as a way of showing his gratitude, Walden allows Alan and his son Jake to move in with him.

Links: HOMEPAGE – iMDB

Note: In English with English Selectable Subtitles

DOWNLOAD

VIP (GOOGLE DRIVE)

This content is reserved for registered users. BUY A VIP MEMBERSHIP HERE and login to be able to see it.

FREE

  • SEASON 1: 720p x265 (ONLY VIP)
  • SEASON 2: 720p x265 (ONLY VIP)
  • SEASON 3: 720p x265 (ONLY VIP)
  • SEASON 4: 720p x265 (ONLY VIP)
  • SEASON 5: 720p x265 (ONLY VIP)
  • SEASON 6: 720p x265 (ONLY VIP)
  • SEASON 7: 720p x265 (ONLY VIP)
  • SEASON 8: 720p x265 (ONLY VIP)
  • SEASON 9: 720p x265 (ONLY VIP)
  • SEASON 10: 720p x265 (ONLY VIP)
  • SEASON 11: 720p x265 (ONLY VIP)
  • SEASON 12: 720p x265 (ONLY VIP)

NFO

WEBRip.x264-ION10

 

720p.x265-BvS

General
Unique ID : 292687566245120660111293067719034235811 (0xDC31932747EDC61C4799F53E31076BA3)
Complete name : Two.and.a.Half.Men.S01E01.Pilot.(Most.Chicks.Wont.Eat.Veal).720p.WEBRip.2CH.x265.HEVC-PSA.mkv
Format : Matroska
Format version : Version 4
File size : 88.4 MiB
Duration : 22 min 57 s
Overall bit rate : 538 kb/s
Movie name : PSArips.com | Two.and.a.Half.Men.S01E01.Pilot.(Most.Chicks.Won’t.Eat.Veal).720p.WEBRip.2CH.x265.HEVC-PSA
Encoded date : UTC 2018-04-02 03:37:35
Writing application : mkvmerge v22.0.0 (‘At The End Of The World’) 64-bit
Writing library : libebml v1.3.5 + libmatroska v1.4.8

Video
ID : 1
Format : HEVC
Format/Info : High Efficiency Video Coding
Format profile : [email protected]@Main
Codec ID : V_MPEGH/ISO/HEVC
Duration : 22 min 57 s
Bit rate : 474 kb/s
Width : 1 280 pixels
Height : 720 pixels
Display aspect ratio : 16:9
Frame rate mode : Constant
Frame rate : 23.976 (24000/1001) FPS
Color space : YUV
Chroma subsampling : 4:2:0
Bit depth : 8 bits
Bits/(Pixel*Frame) : 0.021
Stream size : 77.8 MiB (88%)
Default : Yes
Forced : No

Audio
ID : 2
Format : AAC LC SBR
Format/Info : Advanced Audio Codec Low Complexity with Spectral Band Replication
Commercial name : HE-AAC
Format settings : Explicit
Codec ID : A_AAC-2
Duration : 22 min 56 s
Bit rate : 62.1 kb/s
Channel(s) : 2 channels
Channel layout : L R
Sampling rate : 48.0 kHz
Frame rate : 23.438 FPS (2048 SPF)
Compression mode : Lossy
Delay relative to video : 23 ms
Stream size : 10.2 MiB (12%)
Default : Yes
Forced : No

Text
ID : 3
Format : UTF-8
Codec ID : S_TEXT/UTF8
Codec ID/Info : UTF-8 Plain Text
Duration : 22 min 26 s
Bit rate : 88 b/s
Count of elements : 556
Stream size : 14.6 KiB (0%)
Default : Yes
Forced : No

1080p.x265-BvS

 

Leave a Reply

Your email address will not be published. Required fields are marked *