The Last of Us All Season | 720p & 1080p HBOMAX WEBRip x265-BvS

The Last of Us

Set two decades after the implosion of our society, the drama will follow Joel, a tough survivor, who is hired to smuggle a 14-year-old girl named Ellie out of an oppressive quarantine zone. What starts as a small job soon becomes a brutal, heartbreaking journey, as they both must traverse across the U.S. and depend on each other for survival.

Links: HOMEPAGE – TVM

Note: In English with English/Spanish Selectable Subtitles

DOWNLOAD

VIP (MEGA FOLDER)

This content is reserved for registered users. Sign up here o login to be able to see it. Buy your VIP membership

FREE

NFO

720p.x265-BvS

General
Complete name : The.Last.Of.Us.S01e01.720p.webrip.x265-BvS.mkv
Format : Matroska
Format version : Version 4
File size : 379 MiB
Duration : 1 h 20 min
Overall bit rate : 657 kb/s
Movie name : BvSRips
Encoded date : UTC 2023-01-16 03:10:45
Writing application : mkvmerge v63.0.0 (‘Everything’) 64-bit
Writing library : libebml v1.4.2 + libmatroska v1.6.4

Video
ID : 1
Format : HEVC
Format/Info : High Efficiency Video Coding
Format profile : [email protected]@Main
Codec ID : V_MPEGH/ISO/HEVC
Duration : 1 h 20 min
Bit rate : 527 kb/s
Width : 1 280 pixels
Height : 720 pixels
Display aspect ratio : 16:9
Frame rate mode : Constant
Frame rate : 23.976 (24000/1001) FPS
Color space : YUV
Chroma subsampling : 4:2:0
Bit depth : 8 bits
Bits/(Pixel*Frame) : 0.024
Stream size : 304 MiB (80%)
Writing library : x265 3.5+1-f0c1022b6:[Windows][GCC 10.2.0][64 bit] 8bit+10bit+12bit
Encoding settings : cpuid=1111039 / frame-threads=4 / numa-pools=16 / wpp / no-pmode / no-pme / psnr / no-ssim / log-level=2 / input-csp=1 / input-res=1280×720 / interlace=0 / total-frames=0 / level-idc=0 / high-tier=1 / uhd-bd=0 / ref=3 / no-allow-non-conformance / no-repeat-headers / annexb / no-aud / no-hrd / info / hash=0 / no-temporal-layers / open-gop / min-keyint=24 / keyint=240 / gop-lookahead=0 / bframes=4 / b-adapt=0 / b-pyramid / bframe-bias=0 / rc-lookahead=15 / lookahead-slices=4 / scenecut=40 / hist-scenecut=0 / radl=0 / no-splice / no-intra-refresh / ctu=64 / min-cu-size=8 / no-rect / no-amp / max-tu-size=32 / tu-inter-depth=1 / tu-intra-depth=1 / limit-tu=0 / rdoq-level=0 / dynamic-rd=0.00 / no-ssim-rd / signhide / no-tskip / nr-intra=0 / nr-inter=0 / no-constrained-intra / strong-intra-smoothing / max-merge=2 / limit-refs=3 / no-limit-modes / me=1 / subme=2 / merange=57 / temporal-mvp / no-frame-dup / no-hme / weightp / no-weightb / no-analyze-src-pics / deblock=0:0 / sao / no-sao-non-deblock / rd=2 / selective-sao=4 / no-early-skip / rskip / fast-intra / no-tskip-fast / no-cu-lossless / no-b-intra / no-splitrd-skip / rdpenalty=0 / psy-rd=0.00 / psy-rdoq=0.00 / no-rd-refine / no-lossless / cbqpoffs=0 / crqpoffs=0 / rc=crf / crf=22.5 / qcomp=0.60 / qpstep=4 / stats-write=0 / stats-read=0 / ipratio=1.40 / pbratio=1.30 / aq-mode=2 / aq-strength=0.00 / cutree / zone-count=0 / no-strict-cbr / qg-size=32 / no-rc-grain / qpmax=69 / qpmin=0 / no-const-vbv / sar=1 / overscan=0 / videoformat=5 / range=0 / colorprim=1 / transfer=1 / colormatrix=1 / chromaloc=0 / display-window=0 / cll=0,0 / min-luma=0 / max-luma=255 / log2-max-poc-lsb=8 / vui-timing-info / vui-hrd-info / slices=1 / no-opt-qp-pps / no-opt-ref-list-length-pps / no-multi-pass-opt-rps / scenecut-bias=0.05 / hist-threshold=0.03 / no-opt-cu-delta-qp / no-aq-motion / no-hdr10 / no-hdr10-opt / no-dhdr10-opt / no-idr-recovery-sei / analysis-reuse-level=0 / analysis-save-reuse-level=0 / analysis-load-reuse-level=0 / scale-factor=0 / refine-intra=0 / refine-inter=0 / refine-mv=1 / refine-ctu-distortion=0 / no-limit-sao / ctu-info=0 / no-lowpass-dct / refine-analysis-type=0 / copy-pic=1 / max-ausize-factor=1.0 / no-dynamic-refine / no-single-sei / no-hevc-aq / no-svt / no-field / qp-adaptation-range=1.00 / scenecut-aware-qp=0conformance-window-offsets / right=0 / bottom=0 / decoder-max-rate=0 / no-vbv-live-multi-pass
Default : Yes
Forced : No
Color range : Limited
Color primaries : BT.709
Transfer characteristics : BT.709
Matrix coefficients : BT.709

Audio
ID : 2
Format : AAC LC SBR
Format/Info : Advanced Audio Codec Low Complexity with Spectral Band Replication
Commercial name : HE-AAC
Format settings : NBC
Codec ID : A_AAC-5
Duration : 1 h 20 min
Bit rate : 128 kb/s
Channel(s) : 2 channels
Channel layout : L R
Sampling rate : 44.1 kHz
Frame rate : 21.533 FPS (2048 SPF)
Compression mode : Lossy
Delay relative to video : -115 ms
Stream size : 74.0 MiB (19%)
Language : English
Default : Yes
Forced : No

Text #1
ID : 3
Format : UTF-8
Codec ID : S_TEXT/UTF8
Codec ID/Info : UTF-8 Plain Text
Duration : 1 h 18 min
Bit rate : 49 b/s
Count of elements : 982
Stream size : 28.7 KiB (0%)
Language : English
Default : Yes
Forced : No

Text #2
ID : 4
Format : UTF-8
Codec ID : S_TEXT/UTF8
Codec ID/Info : UTF-8 Plain Text
Duration : 1 h 18 min
Bit rate : 49 b/s
Count of elements : 839
Stream size : 28.5 KiB (0%)
Language : Spanish
Default : Yes
Forced : No

Text #3
ID : 5
Format : ASS
Codec ID : S_TEXT/ASS
Codec ID/Info : Advanced Sub Station Alpha
Duration : 4 s 500 ms
Bit rate : 149 b/s
Count of elements : 1
Compression mode : Lossless
Stream size : 84.0 Bytes (0%)
Default : Yes
Forced : Yes

1080p.x265-BvS

General
Unique ID : 171105717276180143228498563359629585861 (0x80B9C3304DBBDC62A93852E2F12F2DC5)
Complete name : The.Last.Of.Us.S01e01.1080p.webrip.x265-BvS.mkv
Format : Matroska
Format version : Version 4
File size : 704 MiB
Duration : 1 h 20 min
Overall bit rate : 1 219 kb/s
Movie name : BvSRips
Encoded date : UTC 2023-01-16 03:11:08
Writing application : mkvmerge v63.0.0 (‘Everything’) 64-bit
Writing library : libebml v1.4.2 + libmatroska v1.6.4

Video
ID : 1
Format : HEVC
Format/Info : High Efficiency Video Coding
Format profile : [email protected]@Main
Codec ID : V_MPEGH/ISO/HEVC
Duration : 1 h 20 min
Bit rate : 961 kb/s
Width : 1 920 pixels
Height : 1 080 pixels
Display aspect ratio : 16:9
Frame rate mode : Constant
Frame rate : 23.976 (24000/1001) FPS
Color space : YUV
Chroma subsampling : 4:2:0
Bit depth : 8 bits
Bits/(Pixel*Frame) : 0.019
Stream size : 555 MiB (79%)
Writing library : x265 3.5+1-f0c1022b6:[Windows][GCC 10.2.0][64 bit] 8bit+10bit+12bit
Encoding settings : cpuid=1111039 / frame-threads=4 / numa-pools=16 / wpp / no-pmode / no-pme / psnr / no-ssim / log-level=2 / input-csp=1 / input-res=1920×1080 / interlace=0 / total-frames=0 / level-idc=0 / high-tier=1 / uhd-bd=0 / ref=3 / no-allow-non-conformance / no-repeat-headers / annexb / no-aud / no-hrd / info / hash=0 / no-temporal-layers / open-gop / min-keyint=24 / keyint=240 / gop-lookahead=0 / bframes=4 / b-adapt=0 / b-pyramid / bframe-bias=0 / rc-lookahead=15 / lookahead-slices=6 / scenecut=40 / hist-scenecut=0 / radl=0 / no-splice / no-intra-refresh / ctu=64 / min-cu-size=8 / no-rect / no-amp / max-tu-size=32 / tu-inter-depth=1 / tu-intra-depth=1 / limit-tu=0 / rdoq-level=0 / dynamic-rd=0.00 / no-ssim-rd / signhide / no-tskip / nr-intra=0 / nr-inter=0 / no-constrained-intra / strong-intra-smoothing / max-merge=2 / limit-refs=3 / no-limit-modes / me=1 / subme=2 / merange=57 / temporal-mvp / no-frame-dup / no-hme / weightp / no-weightb / no-analyze-src-pics / deblock=0:0 / sao / no-sao-non-deblock / rd=2 / selective-sao=4 / no-early-skip / rskip / fast-intra / no-tskip-fast / no-cu-lossless / no-b-intra / no-splitrd-skip / rdpenalty=0 / psy-rd=0.00 / psy-rdoq=0.00 / no-rd-refine / no-lossless / cbqpoffs=0 / crqpoffs=0 / rc=crf / crf=22.5 / qcomp=0.60 / qpstep=4 / stats-write=0 / stats-read=0 / ipratio=1.40 / pbratio=1.30 / aq-mode=2 / aq-strength=0.00 / cutree / zone-count=0 / no-strict-cbr / qg-size=32 / no-rc-grain / qpmax=69 / qpmin=0 / no-const-vbv / sar=1 / overscan=0 / videoformat=5 / range=0 / colorprim=1 / transfer=1 / colormatrix=1 / chromaloc=0 / display-window=0 / cll=0,0 / min-luma=0 / max-luma=255 / log2-max-poc-lsb=8 / vui-timing-info / vui-hrd-info / slices=1 / no-opt-qp-pps / no-opt-ref-list-length-pps / no-multi-pass-opt-rps / scenecut-bias=0.05 / hist-threshold=0.03 / no-opt-cu-delta-qp / no-aq-motion / no-hdr10 / no-hdr10-opt / no-dhdr10-opt / no-idr-recovery-sei / analysis-reuse-level=0 / analysis-save-reuse-level=0 / analysis-load-reuse-level=0 / scale-factor=0 / refine-intra=0 / refine-inter=0 / refine-mv=1 / refine-ctu-distortion=0 / no-limit-sao / ctu-info=0 / no-lowpass-dct / refine-analysis-type=0 / copy-pic=1 / max-ausize-factor=1.0 / no-dynamic-refine / no-single-sei / no-hevc-aq / no-svt / no-field / qp-adaptation-range=1.00 / scenecut-aware-qp=0conformance-window-offsets / right=0 / bottom=0 / decoder-max-rate=0 / no-vbv-live-multi-pass
Default : Yes
Forced : No
Color range : Limited
Color primaries : BT.709
Transfer characteristics : BT.709
Matrix coefficients : BT.709

Audio
ID : 2
Format : AAC LC SBR
Format/Info : Advanced Audio Codec Low Complexity with Spectral Band Replication
Commercial name : HE-AAC
Format settings : NBC
Codec ID : A_AAC-5
Duration : 1 h 20 min
Bit rate : 256 kb/s
Channel(s) : 6 channels
Channel layout : C L R Ls Rs LFE
Sampling rate : 44.1 kHz
Frame rate : 21.533 FPS (2048 SPF)
Compression mode : Lossy
Delay relative to video : -115 ms
Stream size : 148 MiB (21%)
Language : English
Default : Yes
Forced : No

Text #1
ID : 3
Format : UTF-8
Codec ID : S_TEXT/UTF8
Codec ID/Info : UTF-8 Plain Text
Duration : 1 h 18 min
Bit rate : 49 b/s
Count of elements : 839
Stream size : 28.8 KiB (0%)
Language : Spanish
Default : Yes
Forced : No

Text #2
ID : 4
Format : ASS
Codec ID : S_TEXT/ASS
Codec ID/Info : Advanced Sub Station Alpha
Duration : 4 s 500 ms
Bit rate : 149 b/s
Count of elements : 1
Compression mode : Lossless
Stream size : 84.0 Bytes (0%)
Default : Yes
Forced : Yes

Text #3
ID : 5
Format : UTF-8
Codec ID : S_TEXT/UTF8
Codec ID/Info : UTF-8 Plain Text
Duration : 1 h 18 min
Bit rate : 50 b/s
Count of elements : 982
Stream size : 29.0 KiB (0%)
Language : English
Default : Yes
Forced : No

The.Last.of.Us.S01E01.2160p.HMAX.WEB-DL.DDP5.1.Atmos.DV.MP4.x265-DVSUX

General
Complete name : The.Last.of.Us.S01E01.2160p.HMAX.WEB-DL.DDP5.1.Atmos.DV.MP4.x265-DVSUX.mp4
Format : MPEG-4
Format profile : Base Media / Version 2
Codec ID : mp42 (isom/mp42/dby1)
File size : 10.5 GiB
Duration : 1 h 20 min
Overall bit rate mode : Variable
Overall bit rate : 18.6 Mb/s
Encoded date : UTC 2023-01-16 02:14:28
Tagged date : UTC 2023-01-16 02:14:28

Video
ID : 1
Format : HEVC
Format/Info : High Efficiency Video Coding
Format profile : Main [email protected]@Main
HDR format : Dolby Vision, Version 1.0, dvhe.05.06, BL+RPU
Codec ID : dvhe
Codec ID/Info : High Efficiency Video Coding with Dolby Vision
Duration : 1 h 20 min
Bit rate : 17.8 Mb/s
Width : 3 840 pixels
Height : 2 160 pixels
Display aspect ratio : 16:9
Frame rate mode : Constant
Frame rate : 23.976 (24000/1001) FPS
Color space : YUV
Chroma subsampling : 4:2:0
Bit depth : 10 bits
Bits/(Pixel*Frame) : 0.090
Stream size : 10.0 GiB (96%)
Writing library : x265 3.4hy:[Linux][GCC 7.5.0][64 bit] 10bit
Encoding settings : cpuid=1111039 / frame-threads=6 / no-wpp / no-pmode / no-pme / no-psnr / no-ssim / log-level=2 / input-csp=1 / input-res=3840×2160 / interlace=0 / total-frames=0 / level-idc=0 / high-tier=1 / uhd-bd=0 / ref=4 / no-allow-non-conformance / repeat-headers / annexb / aud / hrd / info / hash=0 / no-temporal-layers / no-open-gop / min-keyint=96 / keyint=96 / gop-lookahead=0 / bframes=4 / b-adapt=2 / b-pyramid / bframe-bias=0 / rc-lookahead=25 / lookahead-slices=4 / scenecut=40 / hist-scenecut=0 / radl=0 / no-splice / no-intra-refresh / ctu=64 / min-cu-size=8 / rect / no-amp / max-tu-size=32 / tu-inter-depth=1 / tu-intra-depth=1 / limit-tu=0 / rdoq-level=2 / dynamic-rd=0.00 / no-ssim-rd / signhide / no-tskip / nr-intra=0 / nr-inter=0 / no-constrained-intra / strong-intra-smoothing / max-merge=3 / limit-refs=3 / limit-modes / me=3 / subme=3 / merange=57 / temporal-mvp / no-frame-dup / no-hme / weightp / no-weightb / no-analyze-src-pics / deblock=0:0 / sao / no-sao-non-deblock / rd=4 / selective-sao=4 / no-early-skip / rskip / no-fast-intra / no-tskip-fast / no-cu-lossless / no-b-intra / no-splitrd-skip / rdpenalty=0 / psy-rd=2.00 / psy-rdoq=1.00 / no-rd-refine / no-lossless / cbqpoffs=0 / crqpoffs=3 / rc=abr / bitrate=18000 / qcomp=0.60 / qpstep=4 / stats-write=0 / stats-read=2 / cplxblur=20.0 / qblur=0.5 / vbv-maxrate=24500 / vbv-bufsize=24500 / vbv-init=0.6 / vbv-end=0.6 / vbv-end-fr-adj=0.0 / ipratio=1.40 / pbratio=1.30 / aq-mode=2 / aq-strength=1.00 / cutree / zone-count=0 / no-strict-cbr / qg-size=32 / no-rc-grain / qpmax=69 / qpmin=0 / no-const-vbv / sar=1 / overscan=0 / videoformat=5 / range=1 / colorprim=2 / transfer=2 / colormatrix=2 / chromaloc=0 / display-window=0 / cll=0,0 / min-luma=0 / max-luma=1023 / log2-max-poc-lsb=8 / vui-timing-info / vui-hrd-info / no-concatenation / slices=1 / no-opt-qp-pps / no-opt-ref-list-length-pps / no-multi-pass-opt-rps / scenecut-bias=0.05 / hist-threshold=0.01 / no-opt-cu-delta-qp / no-aq-motion / no-hdr10 / no-hdr10-opt / no-dhdr10-opt / no-idr-recovery-sei / analysis-reuse-level=0 / analysis-save-reuse-level=0 / analysis-load-reuse-level=0 / scale-factor=0 / refine-intra=0 / refine-inter=0 / refine-mv=1 / refine-ctu-distortion=0 / no-limit-sao / ctu-info=0 / no-lowpass-dct / refine-analysis-type=0 / copy-pic=1 / max-ausize-factor=1.0 / no-dynamic-refine / no-single-sei / no-hevc-aq / no-svt / no-field / qp-adaptation-range=1.00 / no-scenecut-aware-qpconformance-window-offsets / right=0 / bottom=0 / decoder-max-rate=0
Default : Yes
Alternate group : 1
Encoded date : UTC 2023-01-16 02:12:26
Tagged date : UTC 2023-01-16 02:14:47
Color range : Full
Codec configuration box : hvcC+dvcC

Audio
ID : 2
Format : E-AC-3 JOC
Format/Info : Enhanced AC-3 with Joint Object Coding
Commercial name : Dolby Digital Plus with Dolby Atmos
Codec ID : ec-3
Duration : 1 h 20 min
Bit rate mode : Constant
Bit rate : 768 kb/s
Maximum bit rate : 811 kb/s
Channel(s) : 6 channels
Channel layout : L R C LFE Ls Rs
Sampling rate : 48.0 kHz
Frame rate : 31.250 FPS (1536 SPF)
Compression mode : Lossy
Stream size : 444 MiB (4%)
Title : English
Language : English
Service kind : Complete Main
Default : Yes
Alternate group : 1
Tagged date : UTC 2023-01-16 02:14:47
Complexity index : Not present / 16
Number of dynamic objects : 15
Bed channel count : 1 channel
Bed channel configuration : LFE

Text #1
ID : 3
Format : Timed Text
Codec ID : tx3g
Duration : 1 h 18 min
Bit rate mode : Variable
Bit rate : 57 b/s
Stream size : 33.1 KiB (0%)
Title : English
Language : English
Forced : No
Encoded date : UTC 2023-01-16 02:14:44
Tagged date : UTC 2023-01-16 02:14:47

Text #2
ID : 4
Format : Timed Text
Codec ID : tx3g
Duration : 1 h 20 min
Bit rate mode : Variable
Bit rate : 69 b/s
Stream size : 40.7 KiB (0%)
Title : English
Language : English
Forced : No
Encoded date : UTC 2023-01-16 02:14:45
Tagged date : UTC 2023-01-16 02:14:47

Text #3
ID : 5
Format : Timed Text
Codec ID : tx3g
Duration : 1 h 20 min
Bit rate mode : Variable
Bit rate : 75 b/s
Stream size : 44.5 KiB (0%)
Title : Bulgarian
Language : Bulgarian
Forced : No
Encoded date : UTC 2023-01-16 02:14:45
Tagged date : UTC 2023-01-16 02:14:47

Text #4
ID : 6
Format : Timed Text
Codec ID : tx3g
Duration : 1 h 20 min
Bit rate mode : Variable
Bit rate : 47 b/s
Stream size : 27.7 KiB (0%)
Title : Croatian
Language : Croatian
Forced : No
Encoded date : UTC 2023-01-16 02:14:45
Tagged date : UTC 2023-01-16 02:14:47

Text #5
ID : 7
Format : Timed Text
Codec ID : tx3g
Duration : 1 h 20 min
Bit rate mode : Variable
Bit rate : 52 b/s
Stream size : 30.4 KiB (0%)
Title : Czech
Language : Czech
Forced : No
Encoded date : UTC 2023-01-16 02:14:45
Tagged date : UTC 2023-01-16 02:14:47

Text #6
ID : 8
Format : Timed Text
Codec ID : tx3g
Duration : 1 h 20 min
Bit rate mode : Variable
Bit rate : 47 b/s
Stream size : 27.5 KiB (0%)
Title : Danish
Language : Danish
Forced : No
Encoded date : UTC 2023-01-16 02:14:45
Tagged date : UTC 2023-01-16 02:14:47

Text #7
ID : 9
Format : Timed Text
Codec ID : tx3g
Duration : 1 h 20 min
Bit rate mode : Variable
Bit rate : 43 b/s
Stream size : 25.6 KiB (0%)
Title : Dutch
Language : Dutch
Forced : No
Encoded date : UTC 2023-01-16 02:14:45
Tagged date : UTC 2023-01-16 02:14:47

Text #8
ID : 10
Format : Timed Text
Codec ID : tx3g
Duration : 1 h 20 min
Bit rate mode : Variable
Bit rate : 54 b/s
Stream size : 32.1 KiB (0%)
Title : Estonian
Language : Estonian
Forced : No
Encoded date : UTC 2023-01-16 02:14:45
Tagged date : UTC 2023-01-16 02:14:47

Text #9
ID : 11
Format : Timed Text
Codec ID : tx3g
Duration : 1 h 20 min
Bit rate mode : Variable
Bit rate : 54 b/s
Stream size : 31.9 KiB (0%)
Title : Finnish
Language : Finnish
Forced : No
Encoded date : UTC 2023-01-16 02:14:45
Tagged date : UTC 2023-01-16 02:14:47

Text #10
ID : 12
Format : Timed Text
Codec ID : tx3g
Duration : 1 h 20 min
Bit rate mode : Variable
Bit rate : 77 b/s
Stream size : 45.2 KiB (0%)
Title : Greek
Language : Greek
Forced : No
Encoded date : UTC 2023-01-16 02:14:45
Tagged date : UTC 2023-01-16 02:14:47

Text #11
ID : 13
Format : Timed Text
Codec ID : tx3g
Duration : 1 h 20 min
Bit rate mode : Variable
Bit rate : 49 b/s
Stream size : 28.7 KiB (0%)
Title : Hungarian
Language : Hungarian
Forced : No
Encoded date : UTC 2023-01-16 02:14:45
Tagged date : UTC 2023-01-16 02:14:47

Text #12
ID : 14
Format : Timed Text
Codec ID : tx3g
Duration : 1 h 20 min
Bit rate mode : Variable
Bit rate : 61 b/s
Stream size : 35.9 KiB (0%)
Title : Icelandic
Language : Icelandic
Forced : No
Encoded date : UTC 2023-01-16 02:14:45
Tagged date : UTC 2023-01-16 02:14:47

Text #13
ID : 15
Format : Timed Text
Codec ID : tx3g
Duration : 1 h 20 min
Bit rate mode : Variable
Bit rate : 54 b/s
Stream size : 31.7 KiB (0%)
Title : Latvian
Language : Latvian
Forced : No
Encoded date : UTC 2023-01-16 02:14:45
Tagged date : UTC 2023-01-16 02:14:47

Text #14
ID : 16
Format : Timed Text
Codec ID : tx3g
Duration : 1 h 20 min
Bit rate mode : Variable
Bit rate : 53 b/s
Stream size : 31.3 KiB (0%)
Title : Lithuanian
Language : Lithuanian
Forced : No
Encoded date : UTC 2023-01-16 02:14:46
Tagged date : UTC 2023-01-16 02:14:47

Text #15
ID : 17
Format : Timed Text
Codec ID : tx3g
Duration : 1 h 20 min
Bit rate mode : Variable
Bit rate : 89 b/s
Stream size : 52.5 KiB (0%)
Title : Macedonian
Language : Macedonian
Forced : No
Encoded date : UTC 2023-01-16 02:14:46
Tagged date : UTC 2023-01-16 02:14:47

Text #16
ID : 18
Format : Timed Text
Codec ID : tx3g
Duration : 1 h 20 min
Bit rate mode : Variable
Bit rate : 48 b/s
Stream size : 28.1 KiB (0%)
Title : Norwegian
Language : Norwegian
Forced : No
Encoded date : UTC 2023-01-16 02:14:46
Tagged date : UTC 2023-01-16 02:14:47

Text #17
ID : 19
Format : Timed Text
Codec ID : tx3g
Duration : 1 h 20 min
Bit rate mode : Variable
Bit rate : 43 b/s
Stream size : 25.6 KiB (0%)
Title : Polish
Language : Polish
Forced : No
Encoded date : UTC 2023-01-16 02:14:46
Tagged date : UTC 2023-01-16 02:14:47

Text #18
ID : 20
Format : Timed Text
Codec ID : tx3g
Duration : 1 h 20 min
Bit rate mode : Variable
Bit rate : 56 b/s
Stream size : 32.9 KiB (0%)
Title : Portuguese
Language : Portuguese
Forced : No
Encoded date : UTC 2023-01-16 02:14:46
Tagged date : UTC 2023-01-16 02:14:47

Text #19
ID : 21
Format : Timed Text
Codec ID : tx3g
Duration : 1 h 20 min
Bit rate mode : Variable
Bit rate : 45 b/s
Stream size : 26.4 KiB (0%)
Title : Portuguese-BR
Language : Portuguese
Forced : No
Encoded date : UTC 2023-01-16 02:14:46
Tagged date : UTC 2023-01-16 02:14:47

Text #20
ID : 22
Format : Timed Text
Codec ID : tx3g
Duration : 1 h 20 min
Bit rate mode : Variable
Bit rate : 56 b/s
Stream size : 32.9 KiB (0%)
Title : Romanian
Language : Romanian
Forced : No
Encoded date : UTC 2023-01-16 02:14:46
Tagged date : UTC 2023-01-16 02:14:47

Text #21
ID : 23
Format : Timed Text
Codec ID : tx3g
Duration : 1 h 20 min
Bit rate mode : Variable
Bit rate : 76 b/s
Stream size : 45.0 KiB (0%)
Title : Russian
Language : Russian
Forced : No
Encoded date : UTC 2023-01-16 02:14:46
Tagged date : UTC 2023-01-16 02:14:47

Text #22
ID : 24
Format : Timed Text
Codec ID : tx3g
Duration : 1 h 20 min
Bit rate mode : Variable
Bit rate : 50 b/s
Stream size : 29.4 KiB (0%)
Title : Serbian
Language : Serbian
Forced : No
Encoded date : UTC 2023-01-16 02:14:46
Tagged date : UTC 2023-01-16 02:14:47

Text #23
ID : 25
Format : Timed Text
Codec ID : tx3g
Duration : 1 h 20 min
Bit rate mode : Variable
Bit rate : 51 b/s
Stream size : 30.3 KiB (0%)
Title : Slovak
Language : Slovak
Forced : No
Encoded date : UTC 2023-01-16 02:14:46
Tagged date : UTC 2023-01-16 02:14:47

Text #24
ID : 26
Format : Timed Text
Codec ID : tx3g
Duration : 1 h 20 min
Bit rate mode : Variable
Bit rate : 49 b/s
Stream size : 29.0 KiB (0%)
Title : Slovenian
Language : Slovenian
Forced : No
Encoded date : UTC 2023-01-16 02:14:46
Tagged date : UTC 2023-01-16 02:14:47

Text #25
ID : 27
Format : Timed Text
Codec ID : tx3g
Duration : 1 h 20 min
Bit rate mode : Variable
Bit rate : 49 b/s
Stream size : 28.9 KiB (0%)
Title : Spanish
Language : Spanish
Forced : No
Encoded date : UTC 2023-01-16 02:14:46
Tagged date : UTC 2023-01-16 02:14:47

Text #26
ID : 28
Format : Timed Text
Codec ID : tx3g
Duration : 1 h 20 min
Bit rate mode : Variable
Bit rate : 70 b/s
Stream size : 41.4 KiB (0%)
Title : Spanish
Language : Spanish
Forced : No
Encoded date : UTC 2023-01-16 02:14:46
Tagged date : UTC 2023-01-16 02:14:47

Text #27
ID : 29
Format : Timed Text
Codec ID : tx3g
Duration : 1 h 18 min
Bit rate mode : Variable
Bit rate : 56 b/s
Stream size : 32.3 KiB (0%)
Title : Spanish-EU
Language : Spanish
Forced : No
Encoded date : UTC 2023-01-16 02:14:47
Tagged date : UTC 2023-01-16 02:14:47

Text #28
ID : 30
Format : Timed Text
Codec ID : tx3g
Duration : 1 h 20 min
Bit rate mode : Variable
Bit rate : 46 b/s
Stream size : 27.4 KiB (0%)
Title : Swedish
Language : Swedish
Forced : No
Encoded date : UTC 2023-01-16 02:14:47
Tagged date : UTC 2023-01-16 02:14:47

Text #29
ID : 31
Format : Timed Text
Codec ID : tx3g
Duration : 1 h 20 min
Bit rate mode : Variable
Bit rate : 54 b/s
Stream size : 32.0 KiB (0%)
Title : Turkish
Language : Turkish
Forced : No
Encoded date : UTC 2023-01-16 02:14:47
Tagged date : UTC 2023-01-16 02:14:47

 

(He/Him) He's BvSRips. I dedicate myself to sharing files on this blog for free. But it is difficult to maintain the links online for a long time, they are denounced and deleted, reuploading costs more work, that is why a section for VIP users was created, where they can download all the files published 100% in MEGA, as premium, without spend more. I would greatly appreciate your collaboration so that this blog remains online for a longer time.

BUY VIP HERE

Leave a Reply

Your email address will not be published. Required fields are marked *