Supergirl All Season | 720p & 1080p AMZN WEBRip x265-BvS

As Superman’s cousin, Kara Danvers, also known as Supergirl, balances her work as a reporter for CatCo Worldwide Media with her work for the Department of Extra-Normal Operations, a super-secret government organization whose mission is to keep National City – and the Earth – safe from sinister threats.

Links: HOMEPAGE – TVGuide

DOWNLOAD

VIP (GOOGLE DRIVE)

This content is reserved for registered users. BUY A VIP MEMBERSHIP HERE and login to be able to see it.

FREE

NFO

WEBRip.x264-ION10

 

720p.x265-BvS

General
Unique ID : 189436883717881632802250628286888466815 (0x8E84377926A600F2A2764B98F5EED97F)
Complete name : Supergirl.S01E01.720p.BluRay.x265.mkv
Format : Matroska
Format version : Version 4
File size : 232 MiB
Duration : 45 min 17 s
Overall bit rate : 717 kb/s
Encoded date : UTC 2019-03-05 16:53:36
Writing application : mkvmerge v9.9.0 (‘Pick Up’) 64bit
Writing library : libebml v1.3.4 + libmatroska v1.4.5

Video
ID : 1
Format : HEVC
Format/Info : High Efficiency Video Coding
Format profile : [email protected]@Main
Codec ID : V_MPEGH/ISO/HEVC
Duration : 45 min 17 s
Bit rate : 651 kb/s
Width : 1 280 pixels
Height : 720 pixels
Display aspect ratio : 16:9
Frame rate mode : Constant
Frame rate : 23.976 (24000/1001) FPS
Color space : YUV
Chroma subsampling : 4:2:0
Bit depth : 8 bits
Bits/(Pixel*Frame) : 0.029
Stream size : 211 MiB (91%)
Default : Yes
Forced : No
Color range : Limited
Color primaries : BT.709
Transfer characteristics : BT.709
Matrix coefficients : BT.709

Audio
ID : 2
Format : AAC LC SBR
Format/Info : Advanced Audio Codec Low Complexity with Spectral Band Replication
Commercial name : HE-AAC
Format settings : Explicit
Codec ID : A_AAC-2
Duration : 45 min 17 s
Bit rate : 64.0 kb/s
Channel(s) : 2 channels
Channel layout : L R
Sampling rate : 48.0 kHz
Frame rate : 23.438 FPS (2048 SPF)
Compression mode : Lossy
Delay relative to video : -4 ms
Stream size : 20.7 MiB (9%)
Default : Yes
Forced : No

Text
ID : 3
Format : UTF-8
Codec ID : S_TEXT/UTF8
Codec ID/Info : UTF-8 Plain Text
Duration : 45 min 7 s
Bit rate : 78 b/s
Count of elements : 697
Stream size : 25.9 KiB (0%)
Default : Yes
Forced : No

1080p.x265-BvS

General
Unique ID : 249916760412312829861205305085922952098 (0xBC04379D94852F1198D98146CC78C3A2)
Complete name : Supergirl.S02E01.The.Adventures.of.Supergirl.1080p.WEB-DL.6CH.x265.HEVC.mkv
Format : Matroska
Format version : Version 4
File size : 513 MiB
Duration : 42 min 17 s
Overall bit rate : 1 695 kb/s
Movie name : PSArips.com | Supergirl.S02E01.The.Adventures.of.Supergirl.1080p.WEB-DL.6CH.x265.HEVC-PSA
Encoded date : UTC 2016-10-14 19:15:38
Writing application : mkvmerge v9.4.2 (‘So High’) 64bit
Writing library : libebml v1.3.4 + libmatroska v1.4.5

Video
ID : 1
Format : HEVC
Format/Info : High Efficiency Video Coding
Format profile : [email protected]@Main
Codec ID : V_MPEGH/ISO/HEVC
Duration : 42 min 17 s
Bit rate : 1 497 kb/s
Width : 1 912 pixels
Height : 1 072 pixels
Display aspect ratio : 16:9
Frame rate mode : Constant
Frame rate : 23.976 (24000/1001) FPS
Color space : YUV
Chroma subsampling : 4:2:0
Bit depth : 8 bits
Bits/(Pixel*Frame) : 0.030
Stream size : 453 MiB (88%)
Default : Yes
Forced : No
Color range : Limited
Color primaries : BT.709
Transfer characteristics : BT.709
Matrix coefficients : BT.709

Audio
ID : 2
Format : AAC LC SBR
Format/Info : Advanced Audio Codec Low Complexity with Spectral Band Replication
Commercial name : HE-AAC
Format settings : Explicit
Codec ID : A_AAC-2
Duration : 42 min 17 s
Bit rate : 196 kb/s
Channel(s) : 6 channels
Channel layout : C L R Ls Rs LFE
Sampling rate : 48.0 kHz
Frame rate : 23.438 FPS (2048 SPF)
Compression mode : Lossy
Delay relative to video : 23 ms
Stream size : 59.4 MiB (12%)
Default : Yes
Forced : No

Text
ID : 3
Format : UTF-8
Codec ID : S_TEXT/UTF8
Codec ID/Info : UTF-8 Plain Text
Duration : 41 min 44 s
Bit rate : 87 b/s
Count of elements : 833
Stream size : 26.7 KiB (0%)
Default : Yes
Forced : No

Leave a Reply

Your email address will not be published. Required fields are marked *