Stranger Things All Season | 720p & 1080p NF WEBRip x265-BvS

Stranger Things

Tribute to the classic supernatural mysteries of the 80s, “Stranger Things” is the story of a boy who disappears in the small town of Hawkins, Indiana, without a trace in 1983. In his desperate search, both his friends and family and the local sheriff are involved in an extraordinary enigma: top-secret experiments, terrifying paranormal forces and a very, very rare girl …

Links: HOMEPAGE – iMDB

Note: In English with English Selectable Subtitles

DOWNLOAD

VIP (GOOGLE DRIVE)

This content is reserved for registered users. Sign up here o login to be able to see it.

FREE

  • SEASON 1: 720p x265 (ONLY VIP)
  • SEASON 2: 720p x265 (ONLY VIP)
  • SEASON 3: 720p x265 (ONLY VIP)

NFO

WEBRip.x264-ION10

 

720p.x265-BvS

General
Unique ID : 249495874209024634382719468905311415627 (0xBBB32852D6CA22DDB701F5EA6F7EAD4B)
Complete name : Stranger.Things.S01E01.Chapter.One.The.Vanishing.Of.Will.Byers.720p.WEBRip.2CH.x265.HEVC.mkv
Format : Matroska
Format version : Version 4
File size : 248 MiB
Duration : 48 min 16 s
Overall bit rate : 718 kb/s
Movie name : PSArips.com | Stranger.Things.S01E01.Chapter.One.The.Vanishing.Of.Will.Byers.720p.WEBRip.2CH.x265.HEVC-PSA
Encoded date : UTC 2016-07-15 18:05:48
Writing application : mkvmerge v9.2.0 (‘Photograph’) 64bit
Writing library : libebml v1.3.3 + libmatroska v1.4.4

Video
ID : 1
Format : HEVC
Format/Info : High Efficiency Video Coding
Format profile : [email protected]@Main
Codec ID : V_MPEGH/ISO/HEVC
Duration : 47 min 30 s
Bit rate : 661 kb/s
Width : 1 280 pixels
Height : 640 pixels
Display aspect ratio : 2.000
Frame rate mode : Constant
Frame rate : 23.976 (24000/1001) FPS
Color space : YUV
Chroma subsampling : 4:2:0
Bit depth : 8 bits
Bits/(Pixel*Frame) : 0.034
Stream size : 225 MiB (91%)
Default : Yes
Forced : No
Color range : Limited
Color primaries : BT.709
Transfer characteristics : BT.709
Matrix coefficients : BT.709

Audio
ID : 2
Format : AAC LC SBR
Format/Info : Advanced Audio Codec Low Complexity with Spectral Band Replication
Commercial name : HE-AAC
Format settings : Explicit
Codec ID : A_AAC-2
Duration : 48 min 16 s
Bit rate : 66.2 kb/s
Channel(s) : 2 channels
Channel layout : L R
Sampling rate : 48.0 kHz
Frame rate : 23.438 FPS (2048 SPF)
Compression mode : Lossy
Delay relative to video : 23 ms
Stream size : 22.8 MiB (9%)
Default : Yes
Forced : No

Text
ID : 3
Format : UTF-8
Codec ID : S_TEXT/UTF8
Codec ID/Info : UTF-8 Plain Text
Duration : 44 min 32 s
Bit rate : 64 b/s
Count of elements : 657
Stream size : 21.0 KiB (0%)
Default : Yes
Forced : No

1080p.x265-BvS

 

Leave a Reply

Your email address will not be published. Required fields are marked *