Rick and Morty All Season | 720p & 1080p AMZN WEBRip x265-BvS

Rick and Morty

An animated series that follows the misadventures of an alcoholic scientist Rick and his overly nervous grandson Morty, who split their time between domestic family life and intergalactic travel. Often finding themselves in a heap of trouble that more often than not is created through their own actions.

Links: HOMEPAGE – TV.com

DOWNLOAD

VIP (GOOGLE DRIVE)

This content is reserved for registered users. BUY A VIP MEMBERSHIP HERE and login to be able to see it.

FREE

NFO

720p.x265-BvS

General
Unique ID : 248397087167228594385438554909185649313 (0xBADF89F0978FF5675F0954A79127AAA1)
Complete name : Rick.And.Morty.S05e01.720p.webrip.x265-BvS.mkv
Format : Matroska
Format version : Version 4
File size : 222 MiB
Duration : 23 min 54 s
Overall bit rate : 1 296 kb/s
Movie name : BvSRips
Encoded date : UTC 2021-06-22 01:47:41
Writing application : mkvmerge v53.0.0 (‘Fool’s Gold’) 64-bit
Writing library : libebml v1.4.1 + libmatroska v1.6.2

Video
ID : 1
Format : HEVC
Format/Info : High Efficiency Video Coding
Format profile : [email protected]@Main
Codec ID : V_MPEGH/ISO/HEVC
Duration : 23 min 54 s
Bit rate : 1 167 kb/s
Width : 1 280 pixels
Height : 720 pixels
Display aspect ratio : 16:9
Frame rate mode : Constant
Frame rate : 23.976 (24000/1001) FPS
Color space : YUV
Chroma subsampling : 4:2:0
Bit depth : 8 bits
Bits/(Pixel*Frame) : 0.053
Stream size : 200 MiB (90%)
Writing library : x265 3.2.1+1-b5c86a64bbbe:[Windows][GCC 9.2.0][64 bit] 8bit+10bit+12bit
Encoding settings : cpuid=1111039 / frame-threads=3 / numa-pools=8 / wpp / no-pmode / no-pme / psnr / no-ssim / log-level=2 / input-csp=1 / input-res=1280×720 / interlace=0 / total-frames=0 / level-idc=0 / high-tier=1 / uhd-bd=0 / ref=2 / no-allow-non-conformance / no-repeat-headers / annexb / no-aud / no-hrd / info / hash=0 / no-temporal-layers / open-gop / min-keyint=24 / keyint=240 / gop-lookahead=0 / bframes=4 / b-adapt=0 / b-pyramid / bframe-bias=0 / rc-lookahead=15 / lookahead-slices=4 / scenecut=40 / radl=0 / no-splice / no-intra-refresh / ctu=64 / min-cu-size=8 / no-rect / no-amp / max-tu-size=32 / tu-inter-depth=1 / tu-intra-depth=1 / limit-tu=0 / rdoq-level=0 / dynamic-rd=0.00 / no-ssim-rd / signhide / no-tskip / nr-intra=0 / nr-inter=0 / no-constrained-intra / strong-intra-smoothing / max-merge=2 / limit-refs=3 / no-limit-modes / me=1 / subme=2 / merange=57 / temporal-mvp / no-hme / weightp / no-weightb / no-analyze-src-pics / deblock=0:0 / sao / no-sao-non-deblock / rd=2 / selective-sao=4 / early-skip / rskip / fast-intra / no-tskip-fast / no-cu-lossless / no-b-intra / no-splitrd-skip / rdpenalty=0 / psy-rd=0.00 / psy-rdoq=0.00 / no-rd-refine / no-lossless / cbqpoffs=0 / crqpoffs=0 / rc=crf / crf=22.0 / qcomp=0.60 / qpstep=4 / stats-write=0 / stats-read=0 / ipratio=1.40 / pbratio=1.30 / aq-mode=2 / aq-strength=0.00 / cutree / zone-count=0 / no-strict-cbr / qg-size=32 / no-rc-grain / qpmax=69 / qpmin=0 / no-const-vbv / sar=1 / overscan=0 / videoformat=5 / range=0 / colorprim=1 / transfer=1 / colormatrix=1 / chromaloc=0 / display-window=0 / cll=0,0 / min-luma=0 / max-luma=255 / log2-max-poc-lsb=8 / vui-timing-info / vui-hrd-info / slices=1 / no-opt-qp-pps / no-opt-ref-list-length-pps / no-multi-pass-opt-rps / scenecut-bias=0.05 / no-opt-cu-delta-qp / no-aq-motion / no-hdr / no-hdr-opt / no-dhdr10-opt / no-idr-recovery-sei / analysis-reuse-level=5 / scale-factor=0 / refine-intra=0 / refine-inter=0 / refine-mv=1 / refine-ctu-distortion=0 / no-limit-sao / ctu-info=0 / no-lowpass-dct / refine-analysis-type=0 / copy-pic=1 / max-ausize-factor=1.0 / no-dynamic-refine / no-single-sei / no-hevc-aq / no-svt / no-field / qp-adaptation-range=1.00
Default : Yes
Forced : No
Color range : Limited
Color primaries : BT.709
Transfer characteristics : BT.709
Matrix coefficients : BT.709

Audio
ID : 2
Format : AAC LC SBR
Format/Info : Advanced Audio Codec Low Complexity with Spectral Band Replication
Commercial name : HE-AAC
Format settings : NBC
Codec ID : A_AAC-5
Duration : 23 min 54 s
Bit rate : 128 kb/s
Channel(s) : 2 channels
Channel layout : L R
Sampling rate : 44.1 kHz
Frame rate : 21.533 FPS (2048 SPF)
Compression mode : Lossy
Delay relative to video : -115 ms
Stream size : 21.9 MiB (10%)
Language : English
Default : Yes
Forced : No

Text
ID : 3
Format : ASS
Codec ID : S_TEXT/ASS
Codec ID/Info : Advanced Sub Station Alpha
Duration : 4 s 500 ms
Bit rate : 149 b/s
Count of elements : 1
Compression mode : Lossless
Stream size : 84.0 Bytes (0%)
Default : Yes
Forced : No

1080p.x265-BvS

General
ID única : 91269708587334824147820596491291582637 (0x44A9E80EF7A7F33419E92FF1F6C9E0AD)
Nombre completo : Rick.and.morty.s04e08.the.vat.of.acid.episode.1080p.amzn.web-dl.x265-BvS.mkv
Formato : Matroska
Formato de la versión : Version 4
Tamaño de archivo : 286 MiB
Duración : 22 min 38 s
Tasa de bits general : 1 767 kb/s
Película : BvSRips
Fecha de codificación : UTC 2020-05-18 17:11:52
Aplicación de codifición : mkvmerge v41.0.0 (‘Smarra’) 32-bit
Librería de codificación : libebml v1.3.9 + libmatroska v1.5.2

Vídeo
ID : 1
Formato : HEVC
Formato/Info : High Efficiency Video Coding
Formato del perfil : [email protected]@Main
ID códec : V_MPEGH/ISO/HEVC
Duración : 22 min 37 s
Tasa de bits : 1 509 kb/s
Ancho : 1 920 píxeles
Alto : 1 080 píxeles
Relación de aspecto : 16:9
Modo velocidad fotogramas : Constante
Velocidad de fotogramas : 23,976 (24000/1001) FPS
Espacio de color : YUV
Submuestreo croma : 4:2:0
Profundidad bits : 8 bits
Bits/(píxel*fotograma) : 0.030
Tamaño de pista : 244 MiB (85%)
Librería de codificación : x265 1.4:[Windows][GCC 4.7.0][32 bit] Opciones de codificación : wpp / ctu=64 / tu-intra-depth=1 / tu-inter-depth=1 / me=1 / subme=2 / merange=57 / no-rect / no-amp / max-merge=2 / temporal-mvp / early-skip / no-fast-cbf / rdpenalty=0 / no-tskip / no-tskip-fast / strong-intra-smoothing / no-lossless / no-cu-lossless / no-constrained-intra / fast-intra / open-gop / interlace=0 / keyint=240 / min-keyint=24 / scenecut=40 / rc-lookahead=15 / bframes=4 / bframe-bias=0 / b-adapt=0 / ref=1 / weightp / no-weightb / aq-mode=0 / aq-strength=0.00 / cbqpoffs=0 / crqpoffs=0 / rd=2 / psy-rd=0.00 / psy-rdoq=0.00 / signhide / lft / sao / no-sao-non-deblock / b-pyramid / no-cutree / rc=crf / crf=25.0 / qcomp=0.60 / qpmin=0 / qpmax=51 / qpstep=4 / ipratio=1.40 / pbratio=1.30
Default : Sí
Forced : No
Rango de color : Limited
Colores primarios : BT.709
Características transferencia : BT.709
Coeficientes matriz : BT.709

Audio
ID : 2
Formato : AAC LC SBR
Formato/Info : Advanced Audio Codec Low Complexity with Spectral Band Replication
Nombre comercial : HE-AAC
Ajustes del formato : NBC
ID códec : A_AAC-5
Duración : 22 min 37 s
Tasa de bits : 256 kb/s
Canal(es) : 6 canales
ChannelLayout : C L R Ls Rs LFE
Velocidad de muestreo : 48,0 kHz
Velocidad de fotogramas : 23,438 FPS (2048 SPF)
Modo de compresión : Con pérdida
Retraso relativo al vídeo : -105 ms
Tamaño de pista : 41,4 MiB (14%)
Idioma : Inglés
Default : Sí
Forced : No

Texto
ID : 3
Formato : ASS
ID códec : S_TEXT/ASS
ID códec/Info : Advanced Sub Station Alpha
Duración : 4 s 500 ms
Tasa de bits : 149 b/s
ElementCount : 1
Modo de compresión : Sin pérdida
Tamaño de pista : 84,0 Bytes (0%)
Default : Sí
Forced : No

Leave a Reply

Your email address will not be published. Required fields are marked *