Person of Interest All Season | 720p & 1080p Bluray x265-BvS

Person of Interest

John Reese, a presumed dead former CIA agent, is approached by a mysterious billionaire named Harold Finch to prevent violent crimes before they happen by using an advanced surveillance system dubbed “The Machine”. Their unique brand of vigilante justice attracts the attention of two NYPD officers, Joss Carter and Lionel Fusco, whom Reese uses to his advantage as he investigates persons of interest.

Links: HOMEPAGE – TVGuide

Note: In English with English Selectable Subtitles

DOWNLOAD

VIP (GOOGLE DRIVE)

This content is reserved for registered users. Sign up here o login to be able to see it.

FREE

NFO

WEBRip.x264-ION10

 

720p.x265-BvS

General
Unique ID : 214688836042213609843562481681383928387 (0xA18390D8A85EC78989887A58C179B243)
Complete name : Person.of.Interest.S01E01.Extended.720p.BluRay.x265.mkv
Format : Matroska
Format version : Version 4
File size : 286 MiB
Duration : 55 min 49 s
Overall bit rate : 717 kb/s
Encoded date : UTC 2018-11-17 13:54:17
Writing application : mkvmerge v9.9.0 (‘Pick Up’) 64bit
Writing library : libebml v1.3.4 + libmatroska v1.4.5

Video
ID : 1
Format : HEVC
Format/Info : High Efficiency Video Coding
Format profile : [email protected]@Main
Codec ID : V_MPEGH/ISO/HEVC
Duration : 55 min 49 s
Bit rate : 651 kb/s
Width : 1 280 pixels
Height : 720 pixels
Display aspect ratio : 16:9
Frame rate mode : Constant
Frame rate : 23.976 (24000/1001) FPS
Color space : YUV
Chroma subsampling : 4:2:0
Bit depth : 8 bits
Bits/(Pixel*Frame) : 0.029
Stream size : 260 MiB (91%)
Default : Yes
Forced : No
Color range : Limited
Color primaries : BT.709
Transfer characteristics : BT.709
Matrix coefficients : BT.709

Audio
ID : 2
Format : AAC LC SBR
Format/Info : Advanced Audio Codec Low Complexity with Spectral Band Replication
Commercial name : HE-AAC
Format settings : Explicit
Codec ID : A_AAC-2
Duration : 55 min 49 s
Bit rate : 64.0 kb/s
Channel(s) : 2 channels
Channel layout : L R
Sampling rate : 48.0 kHz
Frame rate : 23.438 FPS (2048 SPF)
Compression mode : Lossy
Delay relative to video : 3 ms
Stream size : 25.6 MiB (9%)
Default : Yes
Forced : No

Text
ID : 3
Format : UTF-8
Codec ID : S_TEXT/UTF8
Codec ID/Info : UTF-8 Plain Text
Duration : 55 min 46 s
Bit rate : 71 b/s
Count of elements : 755
Stream size : 29.3 KiB (0%)
Default : Yes
Forced : No

1080p.x265-BvS

 

Leave a Reply

Your email address will not be published. Required fields are marked *