Grimm All Season | 720p & 1080p Bluray x265-BvS

Grimm

Nick Burkhardt thought he prepared himself for the realities of working as a homicide detective until he started seeing things he couldn’t explain. Nick’s life turns upside down when his Aunt Marie reveals they are descendants of an elite group of hunters, known as “Grimms,” who fight to keep humanity safe from supernatural creatures. As Nick digs deeper into her past, he realizes that he will have to shoulder the responsibility of his ancestors.

Links: HOMEPAGE – TV.com

Note: In English with EnglishSelectable Subtitles

DOWNLOAD

VIP (GOOGLE DRIVE)

This content is reserved for registered users. Sign up here o login to be able to see it.

FREE

  • SEASON 1: 720p x265 (ONLY VIP)
  • SEASON 2: 720p x265 (ONLY VIP)
  • SEASON 3: 720p x265 (ONLY VIP)
  • SEASON 4: 720p x265 (ONLY VIP)
  • SEASON 5: 720p x265 (ONLY VIP) 
  • SEASON 6: 720p x265 (ONLY VIP)

NFO

WEBRip.x264-ION10

 

720p.x265-BvS

General
Unique ID : 245503583692233245298039098562926651461 (0xB8B245344368FDD68088F7C6E500A845)
Complete name : Grimm.S01E01.720p.BluRay.x265.mkv
Format : Matroska
Format version : Version 4
File size : 222 MiB
Duration : 43 min 14 s
Overall bit rate : 716 kb/s
Encoded date : UTC 2019-08-11 15:42:17
Writing application : mkvmerge v9.9.0 (‘Pick Up’) 64bit
Writing library : libebml v1.3.4 + libmatroska v1.4.5

Video
ID : 1
Format : HEVC
Format/Info : High Efficiency Video Coding
Format profile : [email protected]@Main
Codec ID : V_MPEGH/ISO/HEVC
Duration : 43 min 14 s
Bit rate : 650 kb/s
Width : 1 280 pixels
Height : 720 pixels
Display aspect ratio : 16:9
Frame rate mode : Constant
Frame rate : 23.976 (24000/1001) FPS
Color space : YUV
Chroma subsampling : 4:2:0
Bit depth : 8 bits
Bits/(Pixel*Frame) : 0.029
Stream size : 201 MiB (91%)
Default : Yes
Forced : No
Color range : Limited
Color primaries : BT.709
Transfer characteristics : BT.709
Matrix coefficients : BT.709

Audio
ID : 2
Format : AAC LC SBR
Format/Info : Advanced Audio Codec Low Complexity with Spectral Band Replication
Commercial name : HE-AAC
Format settings : Explicit
Codec ID : A_AAC-2
Duration : 43 min 14 s
Bit rate : 64.0 kb/s
Channel(s) : 2 channels
Channel layout : L R
Sampling rate : 48.0 kHz
Frame rate : 23.438 FPS (2048 SPF)
Compression mode : Lossy
Delay relative to video : -4 ms
Stream size : 19.8 MiB (9%)
Default : Yes
Forced : No

Text
ID : 3
Format : UTF-8
Codec ID : S_TEXT/UTF8
Codec ID/Info : UTF-8 Plain Text
Duration : 42 min 20 s
Bit rate : 50 b/s
Count of elements : 490
Stream size : 15.7 KiB (0%)
Default : Yes

1080p.x265-BvS

 

Leave a Reply

Your email address will not be published. Required fields are marked *