Game of Thrones All Season | 720p & 1080p Bluray x265-BvS

Game of Thrones

Seven noble families fight for control of the mythical land of Westeros. Friction between the houses leads to full-scale war. All while a very ancient evil awakens in the farthest north. Amidst the war, a neglected military order of misfits, the Night’s Watch, is all that stands between the realms of men and the icy horrors beyond.

Links: HOMEPAGE – TV.com

Note: In English with English/French/Spanish/German Selectable Subtitles

DOWNLOAD

VIP

This content is reserved for registered users. BUY A VIP MEMBERSHIP HERE and login to be able to see it.

FREE

  • SEASON 1: 720p x265 (ONLY VIP)
  • SEASON 2: 720p x265 (ONLY VIP)
  • SEASON 3: 720p x265 (ONLY VIP)
  • SEASON 4: 720p x265 (ONLY VIP)
  • SEASON 5: 720p x265 (ONLY VIP)
  • SEASON 6: 720p x265 (ONLY VIP)
  • SEASON 7: 720p x265 (ONLY VIP)
  • SEASON 8: 720p x265 (ONLY VIP)
  • Game.of.Thrones.S01.UHD.BluRay.2160p.TrueHD.Atmos.7.1.DV.HEVC.REMUX-FraMeSToR(ONLY VIP)
  • Game.of.Thrones.S02.UHD.BluRay.2160p.TrueHD.Atmos.7.1.DV.HEVC.REMUX-FraMeSToR(ONLY VIP)
  • Game.of.Thrones.S03.UHD.BluRay.2160p.TrueHD.Atmos.7.1.DV.HEVC.REMUX-FraMeSToR(ONLY VIP)
  • Game.of.Thrones.S04.UHD.BluRay.2160p.TrueHD.Atmos.7.1.DV.HEVC.REMUX-FraMeSToR(ONLY VIP)
  • Game.of.Thrones.S05.UHD.BluRay.2160p.TrueHD.Atmos.7.1.DV.HEVC.REMUX-FraMeSToR(ONLY VIP)
  • Game.of.Thrones.S06.UHD.BluRay.2160p.TrueHD.Atmos.7.1.DV.HEVC.REMUX-FraMeSToR(ONLY VIP)
  • Game.of.Thrones.S07.UHD.BluRay.2160p.TrueHD.Atmos.7.1.DV.HEVC.REMUX-FraMeSToR(ONLY VIP)
  • Game.of.Thrones.S08.UHD.BluRay.2160p.TrueHD.Atmos.7.1.DV.HEVC.REMUX-FraMeSToR(ONLY VIP)

NFO

720p.x265-BvS

General
Unique ID : 210326966188620296045561384858580740411 (0x9E3B800F0A02E08296EE22F19790E93B)
Complete name : Game.of.Thrones.S01E01.Winter.Is.Coming.720p.10bit.BluRay.2CH.x265.HEVC.mkv
Format : Matroska
Format version : Version 4
File size : 519 MiB
Duration : 1 h 1 min
Overall bit rate : 1 177 kb/s
Movie name : Game.of.Thrones.S01E01.Winter.Is.Coming.720p.10bit.BluRay.2CH.x265.HEVC
Encoded date : UTC 2017-08-03 07:09:43
Writing application : mkvmerge v14.0.0 (‘Flow’) 64bit
Writing library : libebml v1.3.4 + libmatroska v1.4.5

Video
ID : 1
Format : HEVC
Format/Info : High Efficiency Video Coding
Format profile : Main [email protected]@Main
Codec ID : V_MPEGH/ISO/HEVC
Duration : 1 h 1 min
Bit rate : 1 103 kb/s
Width : 1 280 pixels
Height : 720 pixels
Display aspect ratio : 16:9
Frame rate mode : Constant
Frame rate : 23.976 (24000/1001) FPS
Color space : YUV
Chroma subsampling : 4:2:0
Bit depth : 10 bits
Bits/(Pixel*Frame) : 0.050
Stream size : 486 MiB (94%)
Default : Yes
Forced : No

Audio
ID : 2
Format : AAC LC SBR
Format/Info : Advanced Audio Codec Low Complexity with Spectral Band Replication
Commercial name : HE-AAC
Format settings : Explicit
Codec ID : A_AAC-2
Duration : 1 h 1 min
Bit rate : 72.0 kb/s
Channel(s) : 2 channels
Channel layout : L R
Sampling rate : 48.0 kHz
Frame rate : 23.438 FPS (2048 SPF)
Compression mode : Lossy
Delay relative to video : 23 ms
Stream size : 31.9 MiB (6%)
Default : Yes
Forced : No

Text
ID : 3
Format : UTF-8
Codec ID : S_TEXT/UTF8
Codec ID/Info : UTF-8 Plain Text
Duration : 58 min 30 s
Bit rate : 41 b/s
Count of elements : 582
Stream size : 17.9 KiB (0%)
Default : Yes
Forced : No

2160p.TrueHD.Atmos.7.1.DV.HEVC.REMUX-FraMeSToR

General
Unique ID : 67295145339608763242975392194581898452 (0x32A092D450369A356424BD05162624D4)
Complete name : Game.of.Thrones.S01E01.Winter.Is.Coming.2160p.TrueHD.Atmos.7.1.DV.HEVC.REMUX-FraMeSToR.mkv
Format : Matroska
Format version : Version 4
File size : 26.7 GiB
Duration : 1 h 1 min
Overall bit rate mode : Variable
Overall bit rate : 61.9 Mb/s
Movie name : Game of Thrones S01E01 Winter Is Coming 4K
Encoded date : UTC 2020-11-06 11:09:46
Writing application : mkvmerge v51.0.0 (‘I Wish’) 64-bit
Writing library : libebml v1.4.0 + libmatroska v1.6.2
IMDB : tt0944947
TMDB : tv/1399
TVDB : 121361

Video
ID : 1
ID in the original source medium : 4113 (0x1011)
Format : HEVC
Format/Info : High Efficiency Video Coding
Format profile : Main [email protected]@High
HDR format : SMPTE ST 2086, HDR10 compatible
Codec ID : V_MPEGH/ISO/HEVC
Duration : 1 h 1 min
Bit rate : 55.1 Mb/s
Width : 3 840 pixels
Height : 2 160 pixels
Display aspect ratio : 16:9
Frame rate mode : Constant
Frame rate : 23.976 (24000/1001) FPS
Color space : YUV
Chroma subsampling : 4:2:0 (Type 2)
Bit depth : 10 bits
Bits/(Pixel*Frame) : 0.277
Stream size : 23.7 GiB (89%)
Default : No
Forced : No
Color range : Limited
Color primaries : BT.2020
Transfer characteristics : PQ
Matrix coefficients : BT.2020 non-constant
Mastering display color primaries : BT.2020
Mastering display luminance : min: 0.0020 cd/m2, max: 1000 cd/m2
Original source medium : Blu-ray

Audio #1
ID : 2
Format : MLP FBA 16-ch
Format/Info : Meridian Lossless Packing FBA with 16-channel presentation
Commercial name : Dolby TrueHD with Dolby Atmos
Codec ID : A_TRUEHD
Duration : 1 h 1 min
Bit rate mode : Variable
Bit rate : 5 056 kb/s
Maximum bit rate : 7 887 kb/s
Channel(s) : 8 channels
Channel layout : L R C LFE Ls Rs Lb Rb
Sampling rate : 48.0 kHz
Frame rate : 1 200.000 FPS (40 SPF)
Compression mode : Lossless
Stream size : 2.18 GiB (8%)
Title : TrueHD Atmos 7.1
Language : English
Default : Yes
Forced : No
Number of dynamic objects : 11
Bed channel count : 1 channel
Bed channel configuration : LFE

Audio #2
ID : 3
Format : AC-3
Format/Info : Audio Coding 3
Commercial name : Dolby Digital
Codec ID : A_AC3
Duration : 1 h 1 min
Bit rate mode : Constant
Bit rate : 640 kb/s
Channel(s) : 6 channels
Channel layout : L R C LFE Ls Rs
Sampling rate : 48.0 kHz
Frame rate : 31.250 FPS (1536 SPF)
Compression mode : Lossy
Stream size : 282 MiB (1%)
Title : AC-3 5.1-EX
Language : English
Service kind : Complete Main
Default : No
Forced : No

Audio #3
ID : 4
Format : AC-3
Format/Info : Audio Coding 3
Commercial name : Dolby Digital
Codec ID : A_AC3
Duration : 1 h 1 min
Bit rate mode : Constant
Bit rate : 448 kb/s
Channel(s) : 6 channels
Channel layout : L R C LFE Ls Rs
Sampling rate : 48.0 kHz
Frame rate : 31.250 FPS (1536 SPF)
Compression mode : Lossy
Stream size : 198 MiB (1%)
Title : Commentary by executive producers/writers David Benioff and D.B. Weiss
Language : English
Service kind : Complete Main
Default : No
Forced : No

Text #1
ID : 5
Format : PGS
Codec ID : S_HDMV/PGS
Codec ID/Info : Picture based subtitle format used on BDs/HD-DVDs
Duration : 1 h 0 min
Bit rate : 33.7 kb/s
Count of elements : 1290
Stream size : 14.5 MiB (0%)
Title : English (SDH)
Language : English
Default : No
Forced : No

Text #2
ID : 6
Format : PGS
Codec ID : S_HDMV/PGS
Codec ID/Info : Picture based subtitle format used on BDs/HD-DVDs
Duration : 58 min 29 s
Bit rate : 19.8 kb/s
Count of elements : 1128
Stream size : 8.30 MiB (0%)
Title : Chinese (Traditional)
Language : Chinese
Default : No
Forced : No

Text #3
ID : 7
Format : PGS
Codec ID : S_HDMV/PGS
Codec ID/Info : Picture based subtitle format used on BDs/HD-DVDs
Duration : 57 min 13 s
Bit rate : 22.8 kb/s
Count of elements : 766
Stream size : 9.32 MiB (0%)
Title : Croatian
Language : Croatian
Default : No
Forced : No

Text #4
ID : 8
Format : PGS
Codec ID : S_HDMV/PGS
Codec ID/Info : Picture based subtitle format used on BDs/HD-DVDs
Duration : 57 min 13 s
Bit rate : 29.3 kb/s
Count of elements : 900
Stream size : 12.0 MiB (0%)
Title : Czech
Language : Czech
Default : No
Forced : No

Text #5
ID : 9
Format : PGS
Codec ID : S_HDMV/PGS
Codec ID/Info : Picture based subtitle format used on BDs/HD-DVDs
Duration : 58 min 29 s
Bit rate : 31.2 kb/s
Count of elements : 1102
Stream size : 13.1 MiB (0%)
Title : Danish
Language : Danish
Default : No
Forced : No

Text #6
ID : 10
Format : PGS
Codec ID : S_HDMV/PGS
Codec ID/Info : Picture based subtitle format used on BDs/HD-DVDs
Duration : 58 min 29 s
Bit rate : 29.6 kb/s
Count of elements : 1076
Stream size : 12.4 MiB (0%)
Title : Dutch
Language : Dutch
Default : No
Forced : No

Text #7
ID : 11
Format : PGS
Codec ID : S_HDMV/PGS
Codec ID/Info : Picture based subtitle format used on BDs/HD-DVDs
Duration : 58 min 29 s
Bit rate : 27.1 kb/s
Count of elements : 1104
Stream size : 11.3 MiB (0%)
Title : Finnish
Language : Finnish
Default : No
Forced : No

Text #8
ID : 12
Format : PGS
Codec ID : S_HDMV/PGS
Codec ID/Info : Picture based subtitle format used on BDs/HD-DVDs
Duration : 58 min 29 s
Bit rate : 32.3 kb/s
Count of elements : 1102
Stream size : 13.5 MiB (0%)
Title : French
Language : French
Default : No
Forced : No

Text #9
ID : 13
Format : PGS
Codec ID : S_HDMV/PGS
Codec ID/Info : Picture based subtitle format used on BDs/HD-DVDs
Duration : 58 min 29 s
Bit rate : 37.0 kb/s
Count of elements : 1102
Stream size : 15.5 MiB (0%)
Title : German
Language : German
Default : No
Forced : No

Text #10
ID : 14
Format : PGS
Codec ID : S_HDMV/PGS
Codec ID/Info : Picture based subtitle format used on BDs/HD-DVDs
Duration : 59 min 35 s
Bit rate : 28.1 kb/s
Count of elements : 1118
Stream size : 12.0 MiB (0%)
Title : Greek
Language : Greek
Default : No
Forced : No

Text #11
ID : 15
Format : PGS
Codec ID : S_HDMV/PGS
Codec ID/Info : Picture based subtitle format used on BDs/HD-DVDs
Duration : 58 min 20 s
Bit rate : 15.9 kb/s
Count of elements : 862
Stream size : 6.65 MiB (0%)
Title : Hebrew
Language : Hebrew
Default : No
Forced : No

Text #12
ID : 16
Format : PGS
Codec ID : S_HDMV/PGS
Codec ID/Info : Picture based subtitle format used on BDs/HD-DVDs
Duration : 58 min 20 s
Bit rate : 24.5 kb/s
Count of elements : 1068
Stream size : 10.2 MiB (0%)
Title : Hungarian
Language : Hungarian
Default : No
Forced : No

Text #13
ID : 17
Format : PGS
Codec ID : S_HDMV/PGS
Codec ID/Info : Picture based subtitle format used on BDs/HD-DVDs
Duration : 1 h 0 min
Bit rate : 32.9 kb/s
Count of elements : 1296
Stream size : 14.2 MiB (0%)
Title : Italian
Language : Italian
Default : No
Forced : No

Text #14
ID : 18
Format : PGS
Codec ID : S_HDMV/PGS
Codec ID/Info : Picture based subtitle format used on BDs/HD-DVDs
Duration : 57 min 13 s
Bit rate : 16.2 kb/s
Count of elements : 1056
Stream size : 6.63 MiB (0%)
Title : Korean
Language : Korean
Default : No
Forced : No

Text #15
ID : 19
Format : PGS
Codec ID : S_HDMV/PGS
Codec ID/Info : Picture based subtitle format used on BDs/HD-DVDs
Duration : 58 min 29 s
Bit rate : 29.5 kb/s
Count of elements : 1104
Stream size : 12.4 MiB (0%)
Title : Norwegian
Language : Norwegian
Default : No
Forced : No

Text #16
ID : 20
Format : PGS
Codec ID : S_HDMV/PGS
Codec ID/Info : Picture based subtitle format used on BDs/HD-DVDs
Duration : 58 min 23 s
Bit rate : 24.7 kb/s
Count of elements : 944
Stream size : 10.3 MiB (0%)
Title : Polish
Language : Polish
Default : No
Forced : No

Text #17
ID : 21
Format : PGS
Codec ID : S_HDMV/PGS
Codec ID/Info : Picture based subtitle format used on BDs/HD-DVDs
Duration : 58 min 29 s
Bit rate : 29.2 kb/s
Count of elements : 1102
Stream size : 12.2 MiB (0%)
Title : Portuguese (Brazilian)
Language : Portuguese
Default : No
Forced : No

Text #18
ID : 22
Format : PGS
Codec ID : S_HDMV/PGS
Codec ID/Info : Picture based subtitle format used on BDs/HD-DVDs
Duration : 58 min 28 s
Bit rate : 26.5 kb/s
Count of elements : 1022
Stream size : 11.1 MiB (0%)
Title : Portuguese (Iberian)
Language : Portuguese
Default : No
Forced : No

Text #19
ID : 23
Format : PGS
Codec ID : S_HDMV/PGS
Codec ID/Info : Picture based subtitle format used on BDs/HD-DVDs
Duration : 57 min 13 s
Bit rate : 24.4 kb/s
Count of elements : 1002
Stream size : 9.99 MiB (0%)
Title : Romanian
Language : Romanian
Default : No
Forced : No

Text #20
ID : 24
Format : PGS
Codec ID : S_HDMV/PGS
Codec ID/Info : Picture based subtitle format used on BDs/HD-DVDs
Duration : 58 min 28 s
Bit rate : 24.1 kb/s
Count of elements : 1164
Stream size : 10.1 MiB (0%)
Title : Russian
Language : Russian
Default : No
Forced : No

Text #21
ID : 25
Format : PGS
Codec ID : S_HDMV/PGS
Codec ID/Info : Picture based subtitle format used on BDs/HD-DVDs
Duration : 57 min 14 s
Bit rate : 22.4 kb/s
Count of elements : 766
Stream size : 9.17 MiB (0%)
Title : Slovenian
Language : Slovenian
Default : No
Forced : No

Text #22
ID : 26
Format : PGS
Codec ID : S_HDMV/PGS
Codec ID/Info : Picture based subtitle format used on BDs/HD-DVDs
Duration : 58 min 29 s
Bit rate : 31.9 kb/s
Count of elements : 1104
Stream size : 13.3 MiB (0%)
Title : Spanish (Castilian)
Language : Spanish
Default : No
Forced : No

Text #23
ID : 27
Format : PGS
Codec ID : S_HDMV/PGS
Codec ID/Info : Picture based subtitle format used on BDs/HD-DVDs
Duration : 58 min 29 s
Bit rate : 31.7 kb/s
Count of elements : 1104
Stream size : 13.3 MiB (0%)
Title : Spanish (Latin American)
Language : Spanish
Default : No
Forced : No

Text #24
ID : 28
Format : PGS
Codec ID : S_HDMV/PGS
Codec ID/Info : Picture based subtitle format used on BDs/HD-DVDs
Duration : 58 min 29 s
Bit rate : 29.3 kb/s
Count of elements : 1104
Stream size : 12.3 MiB (0%)
Title : Swedish
Language : Swedish
Default : No
Forced : No

Text #25
ID : 29
Format : PGS
Codec ID : S_HDMV/PGS
Codec ID/Info : Picture based subtitle format used on BDs/HD-DVDs
Duration : 58 min 29 s
Bit rate : 20.1 kb/s
Count of elements : 1106
Stream size : 8.42 MiB (0%)
Title : Thai
Language : Thai
Default : No
Forced : No

Text #26
ID : 30
Format : PGS
Codec ID : S_HDMV/PGS
Codec ID/Info : Picture based subtitle format used on BDs/HD-DVDs
Duration : 58 min 29 s
Bit rate : 25.8 kb/s
Count of elements : 1104
Stream size : 10.8 MiB (0%)
Title : Turkish
Language : Turkish
Default : No
Forced : No

Menu
00:00:00.000 : en:Chapter 1
00:00:08.008 : en:Chapter 2
00:07:18.438 : en:Chapter 3
00:08:58.538 : en:Chapter 4
00:18:16.512 : en:Chapter 5
00:28:48.560 : en:Chapter 6
00:39:37.584 : en:Chapter 7
00:50:02.041 : en:Chapter 8
01:00:34.631 : en:Chapter 9

1 Response

  1. User97 says:

    I just came across Game.of.Thrones.2011.S01-S08.2160p.BluRay.HDR10.10bit.x265.HEVC.TrueHD.Atmos.7.1-PHOCiS on usenet but unfortunately they are all already taken down. each episode is approx 5GB. Full download for all 8 seasons is 230 GB. Would be a perfect upload for your site. I searched around at different torrent sites but can’t find this release. Maybe you have better sources? Thanks!

Leave a Reply

Your email address will not be published. Required fields are marked *