Foundation (2021) All Season | 720p & 1080p ATVP WEBRip x265-BvS

Foundation (2021)

Based on the award-winning novels by Isaac Asimov, “Foundation” chronicles a band of exiles on their monumental journey to save humanity and rebuild civilization amid the fall of the Galactic Empire.

Links: HOMEPAGE – TV.com

Note: In English with English Selectable Subtitles

DOWNLOAD

VIP

This content is reserved for registered users. BUY A VIP MEMBERSHIP HERE and login to be able to see it.

FREE

NFO

WEBRip.x264-ION10

 

720p.x265-BvS

General
Unique ID : 314852679813192621678350053453746961983 (0xECDE6BA0239EF6C352E21F6A97F47E3F)
Complete name : Foundation.S01e01.720p.webrip.x265-BvS.mkv
Format : Matroska
Format version : Version 4
File size : 311 MiB
Duration : 1 h 9 min
Overall bit rate : 628 kb/s
Movie name : BvSRips
Encoded date : UTC 2021-09-24 06:20:34
Writing application : mkvmerge v53.0.0 (‘Fool’s Gold’) 64-bit
Writing library : libebml v1.4.1 + libmatroska v1.6.2

Video
ID : 1
Format : HEVC
Format/Info : High Efficiency Video Coding
Format profile : [email protected]@Main
Codec ID : V_MPEGH/ISO/HEVC
Duration : 1 h 9 min
Bit rate : 498 kb/s
Width : 1 356 pixels
Height : 678 pixels
Display aspect ratio : 2.000
Frame rate mode : Constant
Frame rate : 23.976 (24000/1001) FPS
Color space : YUV
Chroma subsampling : 4:2:0
Bit depth : 8 bits
Bits/(Pixel*Frame) : 0.023
Stream size : 247 MiB (79%)
Writing library : x265 3.2.1+1-b5c86a64bbbe:[Windows][GCC 9.2.0][64 bit] 8bit+10bit+12bit
Encoding settings : cpuid=1111039 / frame-threads=3 / numa-pools=8 / wpp / no-pmode / no-pme / psnr / no-ssim / log-level=2 / input-csp=1 / input-res=1356×678 / interlace=0 / total-frames=0 / level-idc=0 / high-tier=1 / uhd-bd=0 / ref=2 / no-allow-non-conformance / no-repeat-headers / annexb / no-aud / no-hrd / info / hash=0 / no-temporal-layers / open-gop / min-keyint=24 / keyint=240 / gop-lookahead=0 / bframes=4 / b-adapt=0 / b-pyramid / bframe-bias=0 / rc-lookahead=15 / lookahead-slices=0 / scenecut=40 / radl=0 / no-splice / no-intra-refresh / ctu=64 / min-cu-size=8 / no-rect / no-amp / max-tu-size=32 / tu-inter-depth=1 / tu-intra-depth=1 / limit-tu=0 / rdoq-level=0 / dynamic-rd=0.00 / no-ssim-rd / signhide / no-tskip / nr-intra=0 / nr-inter=0 / no-constrained-intra / strong-intra-smoothing / max-merge=2 / limit-refs=3 / no-limit-modes / me=1 / subme=2 / merange=57 / temporal-mvp / no-hme / weightp / no-weightb / no-analyze-src-pics / deblock=0:0 / sao / no-sao-non-deblock / rd=2 / selective-sao=4 / early-skip / rskip / fast-intra / no-tskip-fast / no-cu-lossless / no-b-intra / no-splitrd-skip / rdpenalty=0 / psy-rd=0.00 / psy-rdoq=0.00 / no-rd-refine / no-lossless / cbqpoffs=0 / crqpoffs=0 / rc=crf / crf=22.0 / qcomp=0.60 / qpstep=4 / stats-write=0 / stats-read=0 / ipratio=1.40 / pbratio=1.30 / aq-mode=2 / aq-strength=0.00 / cutree / zone-count=0 / no-strict-cbr / qg-size=32 / no-rc-grain / qpmax=69 / qpmin=0 / no-const-vbv / sar=1 / overscan=0 / videoformat=5 / range=0 / colorprim=1 / transfer=1 / colormatrix=1 / chromaloc=0 / display-window=0 / cll=0,0 / min-luma=0 / max-luma=255 / log2-max-poc-lsb=8 / vui-timing-info / vui-hrd-info / slices=1 / no-opt-qp-pps / no-opt-ref-list-length-pps / no-multi-pass-opt-rps / scenecut-bias=0.05 / no-opt-cu-delta-qp / no-aq-motion / no-hdr / no-hdr-opt / no-dhdr10-opt / no-idr-recovery-sei / analysis-reuse-level=5 / scale-factor=0 / refine-intra=0 / refine-inter=0 / refine-mv=1 / refine-ctu-distortion=0 / no-limit-sao / ctu-info=0 / no-lowpass-dct / refine-analysis-type=0 / copy-pic=1 / max-ausize-factor=1.0 / no-dynamic-refine / no-single-sei / no-hevc-aq / no-svt / no-field / qp-adaptation-range=1.00
Default : Yes
Forced : No
Color range : Limited
Color primaries : BT.709
Transfer characteristics : BT.709
Matrix coefficients : BT.709

Audio
ID : 2
Format : AAC LC SBR
Format/Info : Advanced Audio Codec Low Complexity with Spectral Band Replication
Commercial name : HE-AAC
Format settings : NBC
Codec ID : A_AAC-5
Duration : 1 h 9 min
Bit rate : 128 kb/s
Channel(s) : 2 channels
Channel layout : L R
Sampling rate : 44.1 kHz
Frame rate : 21.533 FPS (2048 SPF)
Compression mode : Lossy
Delay relative to video : -115 ms
Stream size : 63.4 MiB (20%)
Language : English
Default : Yes
Forced : No

Text
ID : 3
Format : ASS
Codec ID : S_TEXT/ASS
Codec ID/Info : Advanced Sub Station Alpha
Duration : 4 s 500 ms
Bit rate : 149 b/s
Count of elements : 1
Compression mode : Lossless
Stream size : 84.0 Bytes (0%)
Default : Yes
Forced : No

1080p.x265-BvS

General
Unique ID : 15452183337301187372393797055683608179 (0xB9FFB755C967BCEA25B5E8E42CDBE73)
Complete name : D:\HDNLAEN6019\Foundation.S01e01.1080p.webrip.x265-BvS.mkv
Format : Matroska
Format version : Version 4
File size : 513 MiB
Duration : 1 h 9 min
Overall bit rate : 1 036 kb/s
Movie name : BvSRips
Encoded date : UTC 2021-09-24 07:36:13
Writing application : mkvmerge v53.0.0 (‘Fool’s Gold’) 64-bit
Writing library : libebml v1.4.1 + libmatroska v1.6.2

Video
ID : 1
Format : HEVC
Format/Info : High Efficiency Video Coding
Format profile : [email protected]@Main
Codec ID : V_MPEGH/ISO/HEVC
Duration : 1 h 9 min
Bit rate : 778 kb/s
Width : 1 920 pixels
Height : 960 pixels
Display aspect ratio : 2.000
Frame rate mode : Constant
Frame rate : 23.976 (24000/1001) FPS
Color space : YUV
Chroma subsampling : 4:2:0
Bit depth : 8 bits
Bits/(Pixel*Frame) : 0.018
Stream size : 385 MiB (75%)
Writing library : x265 3.2.1+1-b5c86a64bbbe:[Windows][GCC 9.2.0][64 bit] 8bit+10bit+12bit
Encoding settings : cpuid=1111039 / frame-threads=3 / numa-pools=8 / wpp / no-pmode / no-pme / psnr / no-ssim / log-level=2 / input-csp=1 / input-res=1920×960 / interlace=0 / total-frames=0 / level-idc=0 / high-tier=1 / uhd-bd=0 / ref=2 / no-allow-non-conformance / no-repeat-headers / annexb / no-aud / no-hrd / info / hash=0 / no-temporal-layers / open-gop / min-keyint=24 / keyint=240 / gop-lookahead=0 / bframes=4 / b-adapt=0 / b-pyramid / bframe-bias=0 / rc-lookahead=15 / lookahead-slices=6 / scenecut=40 / radl=0 / no-splice / no-intra-refresh / ctu=64 / min-cu-size=8 / no-rect / no-amp / max-tu-size=32 / tu-inter-depth=1 / tu-intra-depth=1 / limit-tu=0 / rdoq-level=0 / dynamic-rd=0.00 / no-ssim-rd / signhide / no-tskip / nr-intra=0 / nr-inter=0 / no-constrained-intra / strong-intra-smoothing / max-merge=2 / limit-refs=3 / no-limit-modes / me=1 / subme=2 / merange=57 / temporal-mvp / no-hme / weightp / no-weightb / no-analyze-src-pics / deblock=0:0 / sao / no-sao-non-deblock / rd=2 / selective-sao=4 / early-skip / rskip / fast-intra / no-tskip-fast / no-cu-lossless / no-b-intra / no-splitrd-skip / rdpenalty=0 / psy-rd=0.00 / psy-rdoq=0.00 / no-rd-refine / no-lossless / cbqpoffs=0 / crqpoffs=0 / rc=crf / crf=22.0 / qcomp=0.60 / qpstep=4 / stats-write=0 / stats-read=0 / ipratio=1.40 / pbratio=1.30 / aq-mode=2 / aq-strength=0.00 / cutree / zone-count=0 / no-strict-cbr / qg-size=32 / no-rc-grain / qpmax=69 / qpmin=0 / no-const-vbv / sar=1 / overscan=0 / videoformat=5 / range=0 / colorprim=1 / transfer=1 / colormatrix=1 / chromaloc=0 / display-window=0 / cll=0,0 / min-luma=0 / max-luma=255 / log2-max-poc-lsb=8 / vui-timing-info / vui-hrd-info / slices=1 / no-opt-qp-pps / no-opt-ref-list-length-pps / no-multi-pass-opt-rps / scenecut-bias=0.05 / no-opt-cu-delta-qp / no-aq-motion / no-hdr / no-hdr-opt / no-dhdr10-opt / no-idr-recovery-sei / analysis-reuse-level=5 / scale-factor=0 / refine-intra=0 / refine-inter=0 / refine-mv=1 / refine-ctu-distortion=0 / no-limit-sao / ctu-info=0 / no-lowpass-dct / refine-analysis-type=0 / copy-pic=1 / max-ausize-factor=1.0 / no-dynamic-refine / no-single-sei / no-hevc-aq / no-svt / no-field / qp-adaptation-range=1.00
Default : Yes
Forced : No
Color range : Limited
Color primaries : BT.709
Transfer characteristics : BT.709
Matrix coefficients : BT.709

Audio
ID : 2
Format : AAC LC SBR
Format/Info : Advanced Audio Codec Low Complexity with Spectral Band Replication
Commercial name : HE-AAC
Format settings : NBC
Codec ID : A_AAC-5
Duration : 1 h 9 min
Bit rate : 256 kb/s
Channel(s) : 6 channels
Channel layout : C L R Ls Rs LFE
Sampling rate : 48.0 kHz
Frame rate : 23.438 FPS (2048 SPF)
Compression mode : Lossy
Delay relative to video : -105 ms
Stream size : 127 MiB (25%)
Language : English
Default : Yes
Forced : No

Text
ID : 3
Format : ASS
Codec ID : S_TEXT/ASS
Codec ID/Info : Advanced Sub Station Alpha
Duration : 4 s 500 ms
Bit rate : 149 b/s
Count of elements : 1
Compression mode : Lossless
Stream size : 84.0 Bytes (0%)
Default : Yes
Forced : No

2160p.ATVP.WEB-DL.DDP5.1.Atmos.DV.MP4.x265-DVSUX

General
Complete name : Foundation.S01E01.2160p.ATVP.WEB-DL.DDP5.1.Atmos.DV.MP4.x265-DVSUX.mp4
Format : MPEG-4
Format profile : Base Media / Version 2
Codec ID : mp42 (isom/mp42/dby1)
File size : 12.2 GiB
Duration : 1 h 9 min
Overall bit rate mode : Variable
Overall bit rate : 25.3 Mb/s
Encoded date : UTC 2021-09-24 06:13:35
Tagged date : UTC 2021-09-24 06:13:35

Video
ID : 1
Format : HEVC
Format/Info : High Efficiency Video Coding
Format profile : Main [email protected]@High
HDR format : Dolby Vision, Version 1.0, dvhe.05.06, BL+RPU
Codec ID : dvhe
Codec ID/Info : High Efficiency Video Coding with Dolby Vision
Duration : 1 h 9 min
Bit rate : 24.5 Mb/s
Width : 3 840 pixels
Height : 1 920 pixels
Display aspect ratio : 2.000
Frame rate mode : Constant
Frame rate : 23.976 (24000/1001) FPS
Color space : YUV
Chroma subsampling : 4:2:0
Bit depth : 10 bits
Bits/(Pixel*Frame) : 0.139
Stream size : 11.9 GiB (97%)
Default : Yes
Alternate group : 1
Encoded date : UTC 2021-09-24 06:12:42
Tagged date : UTC 2021-09-24 06:13:51
Codec configuration box : hvcC+dvcC

Audio
ID : 2
Format : E-AC-3 JOC
Format/Info : Enhanced AC-3 with Joint Object Coding
Commercial name : Dolby Digital Plus with Dolby Atmos
Codec ID : ec-3
Duration : 1 h 9 min
Bit rate mode : Constant
Bit rate : 768 kb/s
Maximum bit rate : 811 kb/s
Channel(s) : 6 channels
Channel layout : L R C LFE Ls Rs
Sampling rate : 48.0 kHz
Frame rate : 31.250 FPS (1536 SPF)
Compression mode : Lossy
Stream size : 380 MiB (3%)
Title : English
Language : English
Service kind : Complete Main
Default : Yes
Alternate group : 1
Tagged date : UTC 2021-09-24 06:13:51
Complexity index : Not present / 16
Number of dynamic objects : 15
Bed channel count : 1 channel
Bed channel configuration : LFE

Text #1
ID : 3
Format : Timed Text
Codec ID : tx3g
Duration : 1 h 7 min
Bit rate mode : Variable
Bit rate : 63 b/s
Stream size : 31.4 KiB (0%)
Title : English
Language : English
Forced : No
Encoded date : UTC 2021-09-24 06:13:48
Tagged date : UTC 2021-09-24 06:13:51

Text #2
ID : 4
Format : Timed Text
Codec ID : tx3g
Duration : 1 h 9 min
Bit rate mode : Variable
Bit rate : 87 b/s
Stream size : 44.0 KiB (0%)
Title : Arabic
Language : Arabic
Forced : No
Encoded date : UTC 2021-09-24 06:13:48
Tagged date : UTC 2021-09-24 06:13:51

Text #3
ID : 5
Format : Timed Text
Codec ID : tx3g
Duration : 1 h 9 min
Bit rate mode : Variable
Bit rate : 95 b/s
Stream size : 48.4 KiB (0%)
Title : Bulgarian
Language : Bulgarian
Forced : No
Encoded date : UTC 2021-09-24 06:13:48
Tagged date : UTC 2021-09-24 06:13:51

Text #4
ID : 6
Format : Timed Text
Codec ID : tx3g
Duration : 1 h 9 min
Bit rate mode : Variable
Bit rate : 58 b/s
Stream size : 29.6 KiB (0%)
Title : Chinese-Cantonese
Language : Chinese
Forced : No
Encoded date : UTC 2021-09-24 06:13:49
Tagged date : UTC 2021-09-24 06:13:51

Text #5
ID : 7
Format : Timed Text
Codec ID : tx3g
Duration : 1 h 9 min
Bit rate mode : Variable
Bit rate : 58 b/s
Stream size : 29.3 KiB (0%)
Title : Chinese-Simplified
Language : Chinese
Forced : No
Encoded date : UTC 2021-09-24 06:13:49
Tagged date : UTC 2021-09-24 06:13:51

Text #6
ID : 8
Format : Timed Text
Codec ID : tx3g
Duration : 1 h 9 min
Bit rate mode : Variable
Bit rate : 58 b/s
Stream size : 29.4 KiB (0%)
Title : Chinese-Traditional
Language : Chinese
Forced : No
Encoded date : UTC 2021-09-24 06:13:49
Tagged date : UTC 2021-09-24 06:13:51

Text #7
ID : 9
Format : Timed Text
Codec ID : tx3g
Duration : 1 h 9 min
Bit rate mode : Variable
Bit rate : 62 b/s
Stream size : 31.4 KiB (0%)
Title : Czech
Language : Czech
Forced : No
Encoded date : UTC 2021-09-24 06:13:49
Tagged date : UTC 2021-09-24 06:13:51

Text #8
ID : 10
Format : Timed Text
Codec ID : tx3g
Duration : 1 h 9 min
Bit rate mode : Variable
Bit rate : 64 b/s
Stream size : 32.5 KiB (0%)
Title : Danish
Language : Danish
Forced : No
Encoded date : UTC 2021-09-24 06:13:49
Tagged date : UTC 2021-09-24 06:13:51

Text #9
ID : 11
Format : Timed Text
Codec ID : tx3g
Duration : 1 h 9 min
Bit rate mode : Variable
Bit rate : 61 b/s
Stream size : 31.0 KiB (0%)
Title : Dutch
Language : Dutch
Forced : No
Encoded date : UTC 2021-09-24 06:13:49
Tagged date : UTC 2021-09-24 06:13:51

Text #10
ID : 12
Format : Timed Text
Codec ID : tx3g
Duration : 1 h 9 min
Bit rate mode : Variable
Bit rate : 60 b/s
Stream size : 30.3 KiB (0%)
Title : Estonian
Language : Estonian
Forced : No
Encoded date : UTC 2021-09-24 06:13:49
Tagged date : UTC 2021-09-24 06:13:51

Text #11
ID : 13
Format : Timed Text
Codec ID : tx3g
Duration : 1 h 9 min
Bit rate mode : Variable
Bit rate : 63 b/s
Stream size : 31.9 KiB (0%)
Title : Finnish
Language : Finnish
Forced : No
Encoded date : UTC 2021-09-24 06:13:49
Tagged date : UTC 2021-09-24 06:13:51

Text #12
ID : 14
Format : Timed Text
Codec ID : tx3g
Duration : 1 h 9 min
Bit rate mode : Variable
Bit rate : 63 b/s
Stream size : 31.9 KiB (0%)
Title : French
Language : French
Forced : No
Encoded date : UTC 2021-09-24 06:13:49
Tagged date : UTC 2021-09-24 06:13:51

Text #13
ID : 15
Format : Timed Text
Codec ID : tx3g
Duration : 1 h 9 min
Bit rate mode : Variable
Bit rate : 63 b/s
Stream size : 31.8 KiB (0%)
Title : French
Language : French
Forced : No
Encoded date : UTC 2021-09-24 06:13:49
Tagged date : UTC 2021-09-24 06:13:51

Text #14
ID : 16
Format : Timed Text
Codec ID : tx3g
Duration : 1 h 9 min
Bit rate mode : Variable
Bit rate : 67 b/s
Stream size : 33.8 KiB (0%)
Title : German
Language : German
Forced : No
Encoded date : UTC 2021-09-24 06:13:49
Tagged date : UTC 2021-09-24 06:13:51

Text #15
ID : 17
Format : Timed Text
Codec ID : tx3g
Duration : 1 h 9 min
Bit rate mode : Variable
Bit rate : 108 b/s
Stream size : 54.8 KiB (0%)
Title : Greek
Language : Greek
Forced : No
Encoded date : UTC 2021-09-24 06:13:49
Tagged date : UTC 2021-09-24 06:13:51

Text #16
ID : 18
Format : Timed Text
Codec ID : tx3g
Duration : 1 h 9 min
Bit rate mode : Variable
Bit rate : 84 b/s
Stream size : 42.6 KiB (0%)
Title : Hebrew
Language : Hebrew
Forced : No
Encoded date : UTC 2021-09-24 06:13:49
Tagged date : UTC 2021-09-24 06:13:51

Text #17
ID : 19
Format : Timed Text
Codec ID : tx3g
Duration : 1 h 9 min
Bit rate mode : Variable
Bit rate : 167 b/s
Stream size : 84.4 KiB (0%)
Title : Hindi
Language : Hindi
Forced : No
Encoded date : UTC 2021-09-24 06:13:49
Tagged date : UTC 2021-09-24 06:13:51

Text #18
ID : 20
Format : Timed Text
Codec ID : tx3g
Duration : 1 h 9 min
Bit rate mode : Variable
Bit rate : 63 b/s
Stream size : 31.8 KiB (0%)
Title : Hungarian
Language : Hungarian
Forced : No
Encoded date : UTC 2021-09-24 06:13:50
Tagged date : UTC 2021-09-24 06:13:51

Text #19
ID : 21
Format : Timed Text
Codec ID : tx3g
Duration : 1 h 9 min
Bit rate mode : Variable
Bit rate : 68 b/s
Stream size : 34.5 KiB (0%)
Title : Indonesian
Language : Indonesian
Forced : No
Encoded date : UTC 2021-09-24 06:13:50
Tagged date : UTC 2021-09-24 06:13:51

Text #20
ID : 22
Format : Timed Text
Codec ID : tx3g
Duration : 1 h 9 min
Bit rate mode : Variable
Bit rate : 66 b/s
Stream size : 33.5 KiB (0%)
Title : Italian
Language : Italian
Forced : No
Encoded date : UTC 2021-09-24 06:13:50
Tagged date : UTC 2021-09-24 06:13:51

Text #21
ID : 23
Format : Timed Text
Codec ID : tx3g
Duration : 1 h 9 min
Bit rate mode : Variable
Bit rate : 58 b/s
Stream size : 29.6 KiB (0%)
Title : Japanese
Language : Japanese
Forced : No
Encoded date : UTC 2021-09-24 06:13:50
Tagged date : UTC 2021-09-24 06:13:51

Text #22
ID : 24
Format : Timed Text
Codec ID : tx3g
Duration : 1 h 9 min
Bit rate mode : Variable
Bit rate : 67 b/s
Stream size : 34.1 KiB (0%)
Title : Korean
Language : Korean
Forced : No
Encoded date : UTC 2021-09-24 06:13:50
Tagged date : UTC 2021-09-24 06:13:51

Text #23
ID : 25
Format : Timed Text
Codec ID : tx3g
Duration : 1 h 9 min
Bit rate mode : Variable
Bit rate : 66 b/s
Stream size : 33.4 KiB (0%)
Title : Latvian
Language : Latvian
Forced : No
Encoded date : UTC 2021-09-24 06:13:50
Tagged date : UTC 2021-09-24 06:13:51

Text #24
ID : 26
Format : Timed Text
Codec ID : tx3g
Duration : 1 h 9 min
Bit rate mode : Variable
Bit rate : 64 b/s
Stream size : 32.5 KiB (0%)
Title : Lithuanian
Language : Lithuanian
Forced : No
Encoded date : UTC 2021-09-24 06:13:50
Tagged date : UTC 2021-09-24 06:13:51

Text #25
ID : 27
Format : Timed Text
Codec ID : tx3g
Duration : 1 h 9 min
Bit rate mode : Variable
Bit rate : 64 b/s
Stream size : 32.4 KiB (0%)
Title : Malay
Language : Malay
Forced : No
Encoded date : UTC 2021-09-24 06:13:50
Tagged date : UTC 2021-09-24 06:13:51

Text #26
ID : 28
Format : Timed Text
Codec ID : tx3g
Duration : 1 h 9 min
Bit rate mode : Variable
Bit rate : 62 b/s
Stream size : 31.2 KiB (0%)
Title : Norwegian
Language : Norwegian
Forced : No
Encoded date : UTC 2021-09-24 06:13:50
Tagged date : UTC 2021-09-24 06:13:51

Text #27
ID : 29
Format : Timed Text
Codec ID : tx3g
Duration : 1 h 9 min
Bit rate mode : Variable
Bit rate : 62 b/s
Stream size : 31.4 KiB (0%)
Title : Polish
Language : Polish
Forced : No
Encoded date : UTC 2021-09-24 06:13:50
Tagged date : UTC 2021-09-24 06:13:51

Text #28
ID : 30
Format : Timed Text
Codec ID : tx3g
Duration : 1 h 9 min
Bit rate mode : Variable
Bit rate : 63 b/s
Stream size : 32.1 KiB (0%)
Title : Portuguese
Language : Portuguese
Forced : No
Encoded date : UTC 2021-09-24 06:13:50
Tagged date : UTC 2021-09-24 06:13:51

Text #29
ID : 31
Format : Timed Text
Codec ID : tx3g
Duration : 1 h 9 min
Bit rate mode : Variable
Bit rate : 61 b/s
Stream size : 31.1 KiB (0%)
Title : Portuguese
Language : Portuguese
Forced : No
Encoded date : UTC 2021-09-24 06:13:50
Tagged date : UTC 2021-09-24 06:13:51

Text #30
ID : 32
Format : Timed Text
Codec ID : tx3g
Duration : 1 h 8 min
Bit rate mode : Variable
Bit rate : 97 b/s
Stream size : 48.7 KiB (0%)
Title : Russian
Language : Russian
Forced : No
Encoded date : UTC 2021-09-24 06:13:50
Tagged date : UTC 2021-09-24 06:13:51

Text #31
ID : 33
Format : Timed Text
Codec ID : tx3g
Duration : 1 h 9 min
Bit rate mode : Variable
Bit rate : 60 b/s
Stream size : 30.5 KiB (0%)
Title : Slovak
Language : Slovak
Forced : No
Encoded date : UTC 2021-09-24 06:13:50
Tagged date : UTC 2021-09-24 06:13:51

Text #32
ID : 34
Format : Timed Text
Codec ID : tx3g
Duration : 1 h 9 min
Bit rate mode : Variable
Bit rate : 56 b/s
Stream size : 28.4 KiB (0%)
Title : Slovenian
Language : Slovenian
Forced : No
Encoded date : UTC 2021-09-24 06:13:50
Tagged date : UTC 2021-09-24 06:13:51

Text #33
ID : 35
Format : Timed Text
Codec ID : tx3g
Duration : 1 h 9 min
Bit rate mode : Variable
Bit rate : 65 b/s
Stream size : 33.0 KiB (0%)
Title : Spanish
Language : Spanish
Forced : No
Encoded date : UTC 2021-09-24 06:13:51
Tagged date : UTC 2021-09-24 06:13:51

Text #34
ID : 36
Format : Timed Text
Codec ID : tx3g
Duration : 1 h 9 min
Bit rate mode : Variable
Bit rate : 64 b/s
Stream size : 32.3 KiB (0%)
Title : Spanish-EU
Language : Spanish
Forced : No
Encoded date : UTC 2021-09-24 06:13:51
Tagged date : UTC 2021-09-24 06:13:51

Text #35
ID : 37
Format : Timed Text
Codec ID : tx3g
Duration : 1 h 9 min
Bit rate mode : Variable
Bit rate : 64 b/s
Stream size : 32.3 KiB (0%)
Title : Swedish
Language : Swedish
Forced : No
Encoded date : UTC 2021-09-24 06:13:51
Tagged date : UTC 2021-09-24 06:13:51

Text #36
ID : 38
Format : Timed Text
Codec ID : tx3g
Duration : 1 h 9 min
Bit rate mode : Variable
Bit rate : 192 b/s
Stream size : 97.4 KiB (0%)
Title : Tamil
Language : Tamil
Forced : No
Encoded date : UTC 2021-09-24 06:13:51
Tagged date : UTC 2021-09-24 06:13:51

Text #37
ID : 39
Format : Timed Text
Codec ID : tx3g
Duration : 1 h 9 min
Bit rate mode : Variable
Bit rate : 178 b/s
Stream size : 90.3 KiB (0%)
Title : Telugu
Language : Telugu
Forced : No
Encoded date : UTC 2021-09-24 06:13:51
Tagged date : UTC 2021-09-24 06:13:51

Text #38
ID : 40
Format : Timed Text
Codec ID : tx3g
Duration : 1 h 9 min
Bit rate mode : Variable
Bit rate : 161 b/s
Stream size : 81.8 KiB (0%)
Title : Thai
Language : Thai
Forced : No
Encoded date : UTC 2021-09-24 06:13:51
Tagged date : UTC 2021-09-24 06:13:51

Text #39
ID : 41
Format : Timed Text
Codec ID : tx3g
Duration : 1 h 9 min
Bit rate mode : Variable
Bit rate : 66 b/s
Stream size : 33.3 KiB (0%)
Title : Turkish
Language : Turkish
Forced : No
Encoded date : UTC 2021-09-24 06:13:51
Tagged date : UTC 2021-09-24 06:13:51

Text #40
ID : 42
Format : Timed Text
Codec ID : tx3g
Duration : 1 h 9 min
Bit rate mode : Variable
Bit rate : 99 b/s
Stream size : 50.1 KiB (0%)
Title : Ukrainian
Language : Ukrainian
Forced : No
Encoded date : UTC 2021-09-24 06:13:51
Tagged date : UTC 2021-09-24 06:13:51

Text #41
ID : 43
Format : Timed Text
Codec ID : tx3g
Duration : 1 h 9 min
Bit rate mode : Variable
Bit rate : 85 b/s
Stream size : 43.3 KiB (0%)
Title : Vietnamese
Language : Vietnamese
Forced : No
Encoded date : UTC 2021-09-24 06:13:51
Tagged date : UTC 2021-09-24 06:13:51

 

Leave a Reply

Your email address will not be published. Required fields are marked *