Dead to Me All Season | 720p & 1080p NF WEBRip x265-BvS

Jen and Judy are not OK. Not even a little. With their lives spinning out of control, they’re clinging to each other — and their secrets.

Links: HOMEPAGE – iMDB

DOWNLOAD

VIP (GOOGLE DRIVE)

This content is reserved for registered users. BUY A VIP MEMBERSHIP HERE and login to be able to see it.

FREE

NFO

WEBRip.x264-ION10

 

720p.x265-BvS

General
Unique ID : 97555507802424125944069237877865142160 (0x496481E31BEADBF6AF31869ED8075790)
Complete name : Dead.to.Me.S01E01.Pilot.720p.WEBRip.2CH.x265.HEVC.mkv
Format : Matroska
Format version : Version 4
File size : 123 MiB
Duration : 33 min 46 s
Overall bit rate : 511 kb/s
Movie name : Dead.to.Me.S01E01.Pilot.720p.WEBRip.2CH.x265.HEVC-PSA [enthus1ast.com] Encoded date : UTC 2019-05-03 14:56:46
Writing application : mkvmerge v33.1.0 (‘Primrose’) 64-bit
Writing library : libebml v1.3.7 + libmatroska v1.5.0

Video
ID : 1
Format : HEVC
Format/Info : High Efficiency Video Coding
Format profile : [email protected]@Main
Codec ID : V_MPEGH/ISO/HEVC
Duration : 33 min 46 s
Bit rate : 441 kb/s
Width : 1 280 pixels
Height : 640 pixels
Display aspect ratio : 2.000
Frame rate mode : Constant
Frame rate : 23.976 (24000/1001) FPS
Color space : YUV
Chroma subsampling : 4:2:0
Bit depth : 8 bits
Bits/(Pixel*Frame) : 0.022
Stream size : 106 MiB (86%)
Default : Yes
Forced : No

Audio
ID : 2
Format : AAC LC SBR
Format/Info : Advanced Audio Codec Low Complexity with Spectral Band Replication
Commercial name : HE-AAC
Format settings : Explicit
Codec ID : A_AAC-2
Duration : 33 min 46 s
Bit rate : 66.2 kb/s
Channel(s) : 2 channels
Channel layout : L R
Sampling rate : 48.0 kHz
Frame rate : 23.438 FPS (2048 SPF)
Compression mode : Lossy
Delay relative to video : 23 ms
Stream size : 15.9 MiB (13%)
Language : English
Default : Yes
Forced : No

Text #1
ID : 3
Format : UTF-8
Codec ID : S_TEXT/UTF8
Codec ID/Info : UTF-8 Plain Text
Duration : 32 min 55 s
Bit rate : 75 b/s
Count of elements : 610
Stream size : 18.2 KiB (0%)
Title : English
Language : English
Default : Yes
Forced : No

Text #2
ID : 4
Format : UTF-8
Codec ID : S_TEXT/UTF8
Codec ID/Info : UTF-8 Plain Text
Duration : 32 min 59 s
Bit rate : 61 b/s
Count of elements : 492
Stream size : 14.8 KiB (0%)
Title : Czech
Language : Czech
Default : No
Forced : No

Text #3
ID : 5
Format : UTF-8
Codec ID : S_TEXT/UTF8
Codec ID/Info : UTF-8 Plain Text
Duration : 32 min 59 s
Bit rate : 55 b/s
Count of elements : 489
Stream size : 13.4 KiB (0%)
Title : Danish
Language : Danish
Default : No
Forced : No

Text #4
ID : 6
Format : UTF-8
Codec ID : S_TEXT/UTF8
Codec ID/Info : UTF-8 Plain Text
Duration : 32 min 59 s
Bit rate : 54 b/s
Count of elements : 438
Stream size : 13.1 KiB (0%)
Title : German
Language : German
Default : No
Forced : No

Text #5
ID : 7
Format : UTF-8
Codec ID : S_TEXT/UTF8
Codec ID/Info : UTF-8 Plain Text
Duration : 32 min 59 s
Bit rate : 92 b/s
Count of elements : 498
Stream size : 22.4 KiB (0%)
Title : Greek
Language : Greek
Default : No
Forced : No

Text #6
ID : 8
Format : UTF-8
Codec ID : S_TEXT/UTF8
Codec ID/Info : UTF-8 Plain Text
Duration : 32 min 59 s
Bit rate : 51 b/s
Count of elements : 502
Stream size : 12.5 KiB (0%)
Title : European Spanish
Language : Spanish
Default : No
Forced : No

Text #7
ID : 9
Format : UTF-8
Codec ID : S_TEXT/UTF8
Codec ID/Info : UTF-8 Plain Text
Duration : 32 min 59 s
Bit rate : 54 b/s
Count of elements : 482
Stream size : 13.0 KiB (0%)
Title : Spanish
Language : Spanish
Default : No
Forced : No

Text #8
ID : 10
Format : UTF-8
Codec ID : S_TEXT/UTF8
Codec ID/Info : UTF-8 Plain Text
Duration : 32 min 59 s
Bit rate : 50 b/s
Count of elements : 417
Stream size : 12.3 KiB (0%)
Title : Finnish
Language : Finnish
Default : No
Forced : No

Text #9
ID : 11
Format : UTF-8
Codec ID : S_TEXT/UTF8
Codec ID/Info : UTF-8 Plain Text
Duration : 32 min 59 s
Bit rate : 54 b/s
Count of elements : 471
Stream size : 13.3 KiB (0%)
Title : French
Language : French
Default : No
Forced : No

Text #10
ID : 12
Format : UTF-8
Codec ID : S_TEXT/UTF8
Codec ID/Info : UTF-8 Plain Text
Duration : 32 min 59 s
Bit rate : 66 b/s
Count of elements : 536
Stream size : 16.1 KiB (0%)
Title : Indonesian
Language : Indonesian
Default : No
Forced : No

Text #11
ID : 13
Format : UTF-8
Codec ID : S_TEXT/UTF8
Codec ID/Info : UTF-8 Plain Text
Duration : 32 min 59 s
Bit rate : 54 b/s
Count of elements : 458
Stream size : 13.3 KiB (0%)
Title : Italian
Language : Italian
Default : No
Forced : No

Text #12
ID : 14
Format : UTF-8
Codec ID : S_TEXT/UTF8
Codec ID/Info : UTF-8 Plain Text
Duration : 31 min 22 s
Bit rate : 56 b/s
Count of elements : 453
Stream size : 13.0 KiB (0%)
Title : Norwegian
Language : Norwegian
Default : No
Forced : No

Text #13
ID : 15
Format : UTF-8
Codec ID : S_TEXT/UTF8
Codec ID/Info : UTF-8 Plain Text
Duration : 30 min 18 s
Bit rate : 52 b/s
Count of elements : 377
Stream size : 11.6 KiB (0%)
Title : Dutch
Language : Dutch
Default : No
Forced : No

Text #14
ID : 16
Format : UTF-8
Codec ID : S_TEXT/UTF8
Codec ID/Info : UTF-8 Plain Text
Duration : 32 min 59 s
Bit rate : 52 b/s
Count of elements : 482
Stream size : 12.8 KiB (0%)
Title : Polish
Language : Polish
Default : No
Forced : No

Text #15
ID : 17
Format : UTF-8
Codec ID : S_TEXT/UTF8
Codec ID/Info : UTF-8 Plain Text
Duration : 32 min 59 s
Bit rate : 56 b/s
Count of elements : 495
Stream size : 13.6 KiB (0%)
Title : Brazilian Portuguese
Language : Portuguese
Default : No
Forced : No

Text #16
ID : 18
Format : UTF-8
Codec ID : S_TEXT/UTF8
Codec ID/Info : UTF-8 Plain Text
Duration : 32 min 59 s
Bit rate : 53 b/s
Count of elements : 482
Stream size : 13.0 KiB (0%)
Title : Portuguese
Language : Portuguese
Default : No
Forced : No

Text #17
ID : 19
Format : UTF-8
Codec ID : S_TEXT/UTF8
Codec ID/Info : UTF-8 Plain Text
Duration : 32 min 59 s
Bit rate : 92 b/s
Count of elements : 490
Stream size : 22.3 KiB (0%)
Title : Russian
Language : Russian
Default : No
Forced : No

Text #18
ID : 20
Format : UTF-8
Codec ID : S_TEXT/UTF8
Codec ID/Info : UTF-8 Plain Text
Duration : 32 min 59 s
Bit rate : 52 b/s
Count of elements : 440
Stream size : 12.7 KiB (0%)
Title : Swedish
Language : Swedish
Default : No
Forced : No

Text #19
ID : 21
Format : UTF-8
Codec ID : S_TEXT/UTF8
Codec ID/Info : UTF-8 Plain Text
Duration : 32 min 59 s
Bit rate : 58 b/s
Count of elements : 491
Stream size : 14.1 KiB (0%)
Title : Turkish
Language : Turkish
Default : No
Forced : No

1080p.x265-BvS

General
Unique ID : 285346268707087653713809702891573177567 (0xD6ABB13D56E198FFC891BF18EC776CDF)
Complete name : Dead.to.Me.S01E01.Pilot.1080p.WEBRip.6CH.x265.HEVC.mkv
Format : Matroska
Format version : Version 4
File size : 278 MiB
Duration : 33 min 46 s
Overall bit rate : 1 153 kb/s
Movie name : PSArips.com | Dead.to.Me.S01E01.Pilot.1080p.WEBRip.6CH.x265.HEVC-PSA
Encoded date : UTC 2019-05-03 16:28:15
Writing application : mkvmerge v33.1.0 (‘Primrose’) 64-bit
Writing library : libebml v1.3.7 + libmatroska v1.5.0

Video
ID : 1
Format : HEVC
Format/Info : High Efficiency Video Coding
Format profile : [email protected]@Main
Codec ID : V_MPEGH/ISO/HEVC
Duration : 33 min 46 s
Bit rate : 953 kb/s
Width : 1 920 pixels
Height : 960 pixels
Display aspect ratio : 2.000
Frame rate mode : Constant
Frame rate : 23.976 (24000/1001) FPS
Color space : YUV
Chroma subsampling : 4:2:0
Bit depth : 8 bits
Bits/(Pixel*Frame) : 0.022
Stream size : 230 MiB (83%)
Default : Yes
Forced : No

Audio
ID : 2
Format : AAC LC SBR
Format/Info : Advanced Audio Codec Low Complexity with Spectral Band Replication
Commercial name : HE-AAC
Format settings : Explicit
Codec ID : A_AAC-2
Duration : 33 min 46 s
Bit rate : 192 kb/s
Channel(s) : 6 channels
Channel layout : C L R Ls Rs LFE
Sampling rate : 48.0 kHz
Frame rate : 23.438 FPS (2048 SPF)
Compression mode : Lossy
Delay relative to video : 23 ms
Stream size : 47.2 MiB (17%)
Language : English
Default : Yes
Forced : No

Text #1
ID : 3
Format : UTF-8
Codec ID : S_TEXT/UTF8
Codec ID/Info : UTF-8 Plain Text
Duration : 32 min 55 s
Bit rate : 75 b/s
Count of elements : 610
Stream size : 18.2 KiB (0%)
Title : English
Language : English
Default : No
Forced : No

Text #2
ID : 4
Format : UTF-8
Codec ID : S_TEXT/UTF8
Codec ID/Info : UTF-8 Plain Text
Duration : 32 min 59 s
Bit rate : 61 b/s
Count of elements : 492
Stream size : 14.8 KiB (0%)
Title : Czech
Language : Czech
Default : No
Forced : No

Text #3
ID : 5
Format : UTF-8
Codec ID : S_TEXT/UTF8
Codec ID/Info : UTF-8 Plain Text
Duration : 32 min 59 s
Bit rate : 55 b/s
Count of elements : 489
Stream size : 13.4 KiB (0%)
Title : Danish
Language : Danish
Default : No
Forced : No

Text #4
ID : 6
Format : UTF-8
Codec ID : S_TEXT/UTF8
Codec ID/Info : UTF-8 Plain Text
Duration : 32 min 59 s
Bit rate : 54 b/s
Count of elements : 438
Stream size : 13.1 KiB (0%)
Title : German
Language : German
Default : No
Forced : No

Text #5
ID : 7
Format : UTF-8
Codec ID : S_TEXT/UTF8
Codec ID/Info : UTF-8 Plain Text
Duration : 32 min 59 s
Bit rate : 92 b/s
Count of elements : 498
Stream size : 22.4 KiB (0%)
Title : Greek
Language : Greek
Default : No
Forced : No

Text #6
ID : 8
Format : UTF-8
Codec ID : S_TEXT/UTF8
Codec ID/Info : UTF-8 Plain Text
Duration : 32 min 59 s
Bit rate : 51 b/s
Count of elements : 502
Stream size : 12.5 KiB (0%)
Title : European Spanish
Language : Spanish
Default : No
Forced : No

Text #7
ID : 9
Format : UTF-8
Codec ID : S_TEXT/UTF8
Codec ID/Info : UTF-8 Plain Text
Duration : 32 min 59 s
Bit rate : 54 b/s
Count of elements : 482
Stream size : 13.0 KiB (0%)
Title : Spanish
Language : Spanish
Default : No
Forced : No

Text #8
ID : 10
Format : UTF-8
Codec ID : S_TEXT/UTF8
Codec ID/Info : UTF-8 Plain Text
Duration : 32 min 59 s
Bit rate : 50 b/s
Count of elements : 417
Stream size : 12.3 KiB (0%)
Title : Finnish
Language : Finnish
Default : No
Forced : No

Text #9
ID : 11
Format : UTF-8
Codec ID : S_TEXT/UTF8
Codec ID/Info : UTF-8 Plain Text
Duration : 32 min 59 s
Bit rate : 54 b/s
Count of elements : 471
Stream size : 13.3 KiB (0%)
Title : French
Language : French
Default : No
Forced : No

Text #10
ID : 12
Format : UTF-8
Codec ID : S_TEXT/UTF8
Codec ID/Info : UTF-8 Plain Text
Duration : 32 min 59 s
Bit rate : 66 b/s
Count of elements : 536
Stream size : 16.1 KiB (0%)
Title : Indonesian
Language : Indonesian
Default : No
Forced : No

Text #11
ID : 13
Format : UTF-8
Codec ID : S_TEXT/UTF8
Codec ID/Info : UTF-8 Plain Text
Duration : 32 min 59 s
Bit rate : 54 b/s
Count of elements : 458
Stream size : 13.3 KiB (0%)
Title : Italian
Language : Italian
Default : No
Forced : No

Text #12
ID : 14
Format : UTF-8
Codec ID : S_TEXT/UTF8
Codec ID/Info : UTF-8 Plain Text
Duration : 31 min 22 s
Bit rate : 56 b/s
Count of elements : 453
Stream size : 13.0 KiB (0%)
Title : Norwegian
Language : Norwegian
Default : No
Forced : No

Text #13
ID : 15
Format : UTF-8
Codec ID : S_TEXT/UTF8
Codec ID/Info : UTF-8 Plain Text
Duration : 30 min 18 s
Bit rate : 52 b/s
Count of elements : 377
Stream size : 11.6 KiB (0%)
Title : Dutch
Language : Dutch
Default : No
Forced : No

Text #14
ID : 16
Format : UTF-8
Codec ID : S_TEXT/UTF8
Codec ID/Info : UTF-8 Plain Text
Duration : 32 min 59 s
Bit rate : 52 b/s
Count of elements : 482
Stream size : 12.8 KiB (0%)
Title : Polish
Language : Polish
Default : No
Forced : No

Text #15
ID : 17
Format : UTF-8
Codec ID : S_TEXT/UTF8
Codec ID/Info : UTF-8 Plain Text
Duration : 32 min 59 s
Bit rate : 56 b/s
Count of elements : 495
Stream size : 13.6 KiB (0%)
Title : Brazilian Portuguese
Language : Portuguese
Default : No
Forced : No

Text #16
ID : 18
Format : UTF-8
Codec ID : S_TEXT/UTF8
Codec ID/Info : UTF-8 Plain Text
Duration : 32 min 59 s
Bit rate : 53 b/s
Count of elements : 482
Stream size : 13.0 KiB (0%)
Title : Portuguese
Language : Portuguese
Default : No
Forced : No

Text #17
ID : 19
Format : UTF-8
Codec ID : S_TEXT/UTF8
Codec ID/Info : UTF-8 Plain Text
Duration : 32 min 59 s
Bit rate : 92 b/s
Count of elements : 490
Stream size : 22.3 KiB (0%)
Title : Russian
Language : Russian
Default : No
Forced : No

Text #18
ID : 20
Format : UTF-8
Codec ID : S_TEXT/UTF8
Codec ID/Info : UTF-8 Plain Text
Duration : 32 min 59 s
Bit rate : 52 b/s
Count of elements : 440
Stream size : 12.7 KiB (0%)
Title : Swedish
Language : Swedish
Default : No
Forced : No

Text #19
ID : 21
Format : UTF-8
Codec ID : S_TEXT/UTF8
Codec ID/Info : UTF-8 Plain Text
Duration : 32 min 59 s
Bit rate : 58 b/s
Count of elements : 491
Stream size : 14.1 KiB (0%)
Title : Turkish
Language : Turkish
Default : No
Forced : No

 

Leave a Reply

Your email address will not be published. Required fields are marked *