Chicago Fire All Season | 720p & 1080p AMZN WEBRip x265-BvS

The lives of firefighters and paramedics working for the City of Chicago Fire Department at Fire Station 51, made up of Truck 81, Squadron 3, Ambulance 61, and Battalion 25.

Links: Homepage – TV.com

DOWNLOAD

VIP

This content is reserved for registered users. BUY A VIP MEMBERSHIP HERE and login to be able to see it.

FREE

NFO

WEBRip.x264-BvS

General
Complete name : Chicago.Fire.S09E01.WEBRip.x264-ION10.mp4
Format : MPEG-4
Format profile : Base Media
Codec ID : isom (isom/iso2/avc1/mp41)
File size : 407 MiB
Duration : 41 min 40 s
Overall bit rate : 1 365 kb/s
Movie name : RARBG – Chicago.Fire.S09E01.WEBRip.x264-ION10
Encoded date : UTC 2020-11-12 10:04:21
Tagged date : UTC 2020-11-12 10:04:21
Writing application : Lavf58.20.100
Comment : RARBG – Chicago.Fire.S09E01.WEBRip.x264-ION10

Video
ID : 1
Format : AVC
Format/Info : Advanced Video Codec
Format profile : [email protected]
Format settings : CABAC / 5 Ref Frames
Format settings, CABAC : Yes
Format settings, Reference frames : 5 frames
Codec ID : avc1
Codec ID/Info : Advanced Video Coding
Duration : 41 min 40 s
Bit rate : 1 100 kb/s
Width : 720 pixels
Height : 400 pixels
Display aspect ratio : 16:9
Frame rate mode : Constant
Frame rate : 23.976 (24000/1001) FPS
Color space : YUV
Chroma subsampling : 4:2:0
Bit depth : 8 bits
Scan type : Progressive
Bits/(Pixel*Frame) : 0.159
Stream size : 329 MiB (81%)
Title : RARBG – Chicago.Fire.S09E01.WEBRip.x264-ION10
Writing library : x264 core 152 r2851M ba24899
Encoding settings : cabac=1 / ref=5 / deblock=1:-1:-1 / analyse=0x3:0x113 / me=umh / subme=9 / psy=1 / psy_rd=1.00:0.15 / mixed_ref=1 / me_range=16 / chroma_me=1 / trellis=2 / 8x8dct=1 / cqm=0 / deadzone=21,11 / fast_pskip=1 / chroma_qp_offset=-3 / threads=12 / lookahead_threads=1 / sliced_threads=0 / nr=0 / decimate=1 / interlaced=0 / bluray_compat=0 / constrained_intra=0 / bframes=3 / b_pyramid=2 / b_adapt=2 / b_bias=0 / direct=3 / weightb=1 / open_gop=0 / weightp=2 / keyint=250 / keyint_min=23 / scenecut=40 / intra_refresh=0 / rc_lookahead=50 / rc=abr / mbtree=1 / bitrate=1100 / ratetol=1.0 / qcomp=0.60 / qpmin=0 / qpmax=69 / qpstep=4 / ip_ratio=1.40 / aq=1:1.00
Language : English
Encoded date : UTC 2020-11-12 10:04:21
Tagged date : UTC 2020-11-12 10:04:21
Codec configuration box : avcC

Audio
ID : 2
Format : AAC LC
Format/Info : Advanced Audio Codec Low Complexity
Codec ID : mp4a-40-2
Duration : 41 min 40 s
Bit rate mode : Constant
Bit rate : 256 kb/s
Channel(s) : 2 channels
Channel layout : L R
Sampling rate : 48.0 kHz
Frame rate : 46.875 FPS (1024 SPF)
Compression mode : Lossy
Stream size : 76.3 MiB (19%)
Title : RARBG – Chicago.Fire.S09E01.WEBRip.x264-ION10
Language : English
Default : Yes
Alternate group : 1
Encoded date : UTC 2020-11-12 10:04:21
Tagged date : UTC 2020-11-12 10:04:21

720p.x265-BvS

General
Unique ID : 334984172040172884257074485250097721660 (0xFC039AD30B8F0344BE01216FF0F8B13C)
Complete name : Chicago.fire.s09e01.720p.hdtv.x265-BvS.mkv
Format : Matroska
Format version : Version 4
File size : 276 MiB
Duration : 40 min 15 s
Overall bit rate : 958 kb/s
Movie name : BvSRips
Encoded date : UTC 2020-11-12 13:21:43
Writing application : mkvmerge v46.0.0 (‘No Deeper Escape’) 64-bit
Writing library : libebml v1.3.10 + libmatroska v1.5.2

Video
ID : 1
Format : HEVC
Format/Info : High Efficiency Video Coding
Format profile : [email protected]@Main
Codec ID : V_MPEGH/ISO/HEVC
Duration : 40 min 15 s
Bit rate : 828 kb/s
Width : 1 280 pixels
Height : 718 pixels
Display aspect ratio : 16:9
Frame rate mode : Constant
Frame rate : 23.976 (24000/1001) FPS
Color space : YUV
Chroma subsampling : 4:2:0
Bit depth : 8 bits
Bits/(Pixel*Frame) : 0.038
Stream size : 239 MiB (86%)
Writing library : x265 1.5:[Windows][GCC 4.7.0][32 bit] Encoding settings : wpp / ctu=64 / tu-intra-depth=1 / tu-inter-depth=1 / me=1 / subme=2 / merange=57 / no-rect / no-amp / max-merge=2 / temporal-mvp / early-skip / no-fast-cbf / rdpenalty=0 / no-tskip / no-tskip-fast / strong-intra-smoothing / no-lossless / no-cu-lossless / no-constrained-intra / fast-intra / open-gop / interlace=0 / keyint=240 / min-keyint=24 / scenecut=40 / rc-lookahead=15 / bframes=4 / bframe-bias=0 / b-adapt=0 / ref=1 / weightp / no-weightb / aq-mode=0 / aq-strength=0.00 / cbqpoffs=0 / crqpoffs=0 / rd=2 / psy-rd=0.00 / psy-rdoq=0.00 / signhide / lft / sao / no-sao-non-deblock / b-pyramid / no-cutree / rc=crf / crf=25.0 / qcomp=0.60 / qpmin=0 / qpmax=51 / qpstep=4 / ipratio=1.40 / pbratio=1.30
Default : Yes
Forced : No
Color range : Limited
Color primaries : BT.709
Transfer characteristics : BT.709
Matrix coefficients : BT.709

Audio
ID : 2
Format : AAC LC SBR
Format/Info : Advanced Audio Codec Low Complexity with Spectral Band Replication
Commercial name : HE-AAC
Format settings : NBC
Codec ID : A_AAC-5
Duration : 40 min 15 s
Bit rate : 128 kb/s
Channel(s) : 2 channels
Channel layout : L R
Sampling rate : 44.1 kHz
Frame rate : 21.533 FPS (2048 SPF)
Compression mode : Lossy
Stream size : 36.9 MiB (13%)
Default : Yes
Forced : No

Text
ID : 3
Format : ASS
Codec ID : S_TEXT/ASS
Codec ID/Info : Advanced Sub Station Alpha
Duration : 4 s 500 ms
Bit rate : 149 b/s
Count of elements : 1
Compression mode : Lossless
Stream size : 84.0 Bytes (0%)
Default : Yes
Forced : No

1080p.x265-BvS

General
ID única : 241235110359941285244971572059070324702 (0xB57C3138796176FCA7A8F5EFE704DFDE)
Nombre completo : Chicago.fire.s08e01.sacred.ground.1080p.amzn.web-dl.x265-BvS.mkv
Formato : Matroska
Formato de la versión : Version 4
Tamaño de archivo : 422 MiB
Duración : 41 min 46 s
Tasa de bits general : 1 413 kb/s
Película : www.MEGADDL.co
Fecha de codificación : UTC 2019-09-26 20:13:36
Aplicación de codifición : mkvmerge v7.8.0 (‘River Man’) 64bit built on Mar 27 2015 16:31:37
Librería de codificación : libebml v1.3.1 + libmatroska v1.4.2

Vídeo
ID : 1
Formato : HEVC
Formato/Info : High Efficiency Video Coding
Formato del perfil : [email protected]@Main
ID códec : V_MPEGH/ISO/HEVC
Duración : 41 min 46 s
Tasa de bits : 1 156 kb/s
Ancho : 1 920 píxeles
Alto : 1 080 píxeles
Relación de aspecto : 16:9
Modo velocidad fotogramas : Constante
Velocidad de fotogramas : 23,976 (24000/1001) FPS
Espacio de color : YUV
Submuestreo croma : 4:2:0
Profundidad bits : 8 bits
Bits/(píxel*fotograma) : 0.023
Tamaño de pista : 345 MiB (82%)
Librería de codificación : x265 1.5:[Windows][GCC 4.9.0][64 bit] Opciones de codificación : wpp / ctu=64 / tu-intra-depth=1 / tu-inter-depth=1 / me=1 / subme=2 / merange=57 / no-rect / no-amp / max-merge=2 / temporal-mvp / early-skip / no-fast-cbf / rdpenalty=0 / no-tskip / no-tskip-fast / strong-intra-smoothing / no-lossless / no-cu-lossless / no-constrained-intra / fast-intra / open-gop / interlace=0 / keyint=240 / min-keyint=24 / scenecut=40 / rc-lookahead=15 / bframes=4 / bframe-bias=0 / b-adapt=0 / ref=1 / weightp / no-weightb / aq-mode=0 / aq-strength=0.00 / cbqpoffs=0 / crqpoffs=0 / rd=2 / psy-rd=0.00 / psy-rdoq=0.00 / signhide / lft / sao / no-sao-non-deblock / b-pyramid / no-cutree / rc=crf / crf=25.0 / qcomp=0.60 / qpmin=0 / qpmax=51 / qpstep=4 / ipratio=1.40 / pbratio=1.30
Default : Sí
Forced : No
Rango de color : Limited
Colores primarios : BT.709
Características transferencia : BT.709
Coeficientes matriz : BT.709

Audio
ID : 2
Formato : AAC LC SBR
Formato/Info : Advanced Audio Codec Low Complexity with Spectral Band Replication
Nombre comercial : HE-AAC
Ajustes del formato : NBC
ID códec : A_AAC-5
Duración : 41 min 46 s
Tasa de bits : 256 kb/s
Canal(es) : 6 canales
ChannelLayout : C L R Ls Rs LFE
Velocidad de muestreo : 48,0 kHz
Velocidad de fotogramas : 23,438 FPS (2048 SPF)
Modo de compresión : Con pérdida
Tamaño de pista : 76,5 MiB (18%)
Idioma : Inglés
Default : Sí
Forced : No

Texto
ID : 3
Formato : ASS
ID códec : S_TEXT/ASS
ID códec/Info : Advanced Sub Station Alpha
Duración : 4 s 500 ms
Tasa de bits : 149 b/s
ElementCount : 1
Modo de compresión : Sin pérdida
Tamaño de pista : 84,0 Bytes (0%)
Default : Sí

4 Responses

  1. Ade says:

    Hello,

    Thank you very much for all your work and the videos.
    There is a password required however for the link redirecting to 720p.

  2. Bii Déé says:

    EP_15 is missing

Leave a Reply

Your email address will not be published. Required fields are marked *