Chernobyl All Season | 720p & 1080p WEBRip x265-BvS

Chernobyl dramatizes the story of the 1986 nuclear accident — one of the worst man-made catastrophes in history — and the sacrifices made to save Europe from unimaginable disaster.

Links: HOMEPAGE – iMDB

Note: In English with English Selectable Subtitles

DOWNLOAD

VIP (GOOGLE DRIVE)

This content is reserved for registered users. BUY A VIP MEMBERSHIP HERE and login to be able to see it.

FREE

  • SEASON 1: 720p x265 (ONLY VIP)

NFO

WEBRip.x264-ION10

 

720p.x265-BvS

General
Unique ID : 251027825518560811227062395257986738837 (0xBCDA335AC9A9AF11BFA93901A683EA95)
Complete name : Chernobyl.S01E01.1.23.45.720p.10bit.WEBRip.2CH.x265.HEVC.mkv
Format : Matroska
Format version : Version 4
File size : 283 MiB
Duration : 1 h 3 min
Overall bit rate : 625 kb/s
Movie name :  Chernobyl.S01E01.1.23.45.720p.10bit.WEBRip.2CH.x265.HEVC-PSA
Encoded date : UTC 2019-05-07 07:11:43
Writing application : mkvmerge v33.1.0 (‘Primrose’) 64-bit
Writing library : libebml v1.3.7 + libmatroska v1.5.0

Video
ID : 1
Format : HEVC
Format/Info : High Efficiency Video Coding
Format profile : Main [email protected]@Main
Codec ID : V_MPEGH/ISO/HEVC
Duration : 1 h 3 min
Bit rate : 550 kb/s
Width : 1 280 pixels
Height : 640 pixels
Display aspect ratio : 2.000
Frame rate mode : Constant
Frame rate : 23.976 (24000/1001) FPS
Color space : YUV
Chroma subsampling : 4:2:0
Bit depth : 10 bits
Bits/(Pixel*Frame) : 0.028
Stream size : 249 MiB (88%)
Default : Yes
Forced : No

Audio
ID : 2
Format : AAC LC SBR
Format/Info : Advanced Audio Codec Low Complexity with Spectral Band Replication
Commercial name : HE-AAC
Format settings : Explicit
Codec ID : A_AAC-2
Duration : 1 h 3 min
Bit rate : 72.0 kb/s
Channel(s) : 2 channels
Channel layout : L R
Sampling rate : 48.0 kHz
Frame rate : 23.438 FPS (2048 SPF)
Compression mode : Lossy
Delay relative to video : 23 ms
Stream size : 33.0 MiB (12%)
Language : English
Default : Yes
Forced : No

Text
ID : 3
Format : UTF-8
Codec ID : S_TEXT/UTF8
Codec ID/Info : UTF-8 Plain Text
Duration : 1 h 3 min
Bit rate : 49 b/s
Count of elements : 742
Stream size : 22.9 KiB (0%)
Language : English
Default : Yes
Forced : No

1080p.x265-BvS

General
Unique ID : 298864893950261186896940127066289381944 (0xE0D748EC7C74B41B2622DBEEE928A238)
Complete name : Chernobyl.S01E01.1.23.45.1080p.10bit.WEBRip.6CH.x265.HEVC.mkv
Format : Matroska
Format version : Version 4
File size : 744 MiB
Duration : 1 h 3 min
Overall bit rate : 1 645 kb/s
Movie name : Chernobyl.S01E01.1.23.45.1080p.10bit.WEBRip.6CH.x265.HEVC-PSA
Encoded date : UTC 2019-05-07 09:24:08
Writing application : mkvmerge v33.1.0 (‘Primrose’) 64-bit
Writing library : libebml v1.3.7 + libmatroska v1.5.0

Video
ID : 1
Format : HEVC
Format/Info : High Efficiency Video Coding
Format profile : Main [email protected]@Main
Codec ID : V_MPEGH/ISO/HEVC
Duration : 1 h 3 min
Bit rate : 1 439 kb/s
Width : 1 920 pixels
Height : 960 pixels
Display aspect ratio : 2.000
Frame rate mode : Constant
Frame rate : 23.976 (24000/1001) FPS
Color space : YUV
Chroma subsampling : 4:2:0
Bit depth : 10 bits
Bits/(Pixel*Frame) : 0.033
Stream size : 651 MiB (87%)
Default : Yes
Forced : No

Audio
ID : 2
Format : AAC LC SBR
Format/Info : Advanced Audio Codec Low Complexity with Spectral Band Replication
Commercial name : HE-AAC
Format settings : Explicit
Codec ID : A_AAC-2
Duration : 1 h 3 min
Bit rate : 205 kb/s
Channel(s) : 6 channels
Channel layout : C L R Ls Rs LFE
Sampling rate : 48.0 kHz
Frame rate : 23.438 FPS (2048 SPF)
Compression mode : Lossy
Delay relative to video : 23 ms
Stream size : 92.6 MiB (12%)
Language : English
Default : Yes
Forced : No

Text
ID : 3
Format : UTF-8
Codec ID : S_TEXT/UTF8
Codec ID/Info : UTF-8 Plain Text
Duration : 1 h 3 min
Bit rate : 49 b/s
Count of elements : 742
Stream size : 22.9 KiB (0%)
Language : English
Default : Yes
Forced : No

Leave a Reply

Your email address will not be published. Required fields are marked *