Cable Girls All Season | 720p & 1080p WEBRip x265-BvS

Cable Girls

Lidia returns to Spain to try and find Sofía with the help of her close friends, as they all grapple with the consequences of the Spanish Civil War.

When Lidia’s biggest rival uses a prison camp to enact revenge, Lidia and her friends become even more defiant in their fight against Franco’s regime.

Links: HOMEPAGE – iMDB

Note: Spanish with Subtitles English/German/French/Spanish

DOWNLOAD

VIP (GOOGLE DRIVE)

This content is reserved for registered users. BUY A VIP MEMBERSHIP HERE and login to be able to see it.

FREE

NFO

WEBRip.x264-ION10

General
Complete name : Cable.Girls.S05E01.WEBRip.x264-ION10.mp4
Format : MPEG-4
Format profile : Base Media
Codec ID : isom (isom/iso2/avc1/mp41)
File size : 408 MiB
Duration : 43 min 2 s
Overall bit rate : 1 326 kb/s
Movie name : Cable.Girls.S05E01.WEBRip.x264-ION10
Encoded date : UTC 2020-07-03 06:28:32
Tagged date : UTC 2020-07-03 06:28:32
Writing application : Lavf58.0.101
Comment : Cable.Girls.S05E01.WEBRip.x264-ION10

Video
ID : 1
Format : AVC
Format/Info : Advanced Video Codec
Format profile : [email protected]
Format settings : CABAC / 5 Ref Frames
Format settings, CABAC : Yes
Format settings, Reference frames : 5 frames
Codec ID : avc1
Codec ID/Info : Advanced Video Coding
Duration : 43 min 2 s
Bit rate : 1 100 kb/s
Width : 720 pixels
Height : 360 pixels
Display aspect ratio : 2.000
Frame rate mode : Constant
Frame rate : 25.000 FPS
Color space : YUV
Chroma subsampling : 4:2:0
Bit depth : 8 bits
Scan type : Progressive
Bits/(Pixel*Frame) : 0.170
Stream size : 327 MiB (80%)
Title : Cable.Girls.S05E01.WEBRip.x264-ION10
Writing library : x264 core 148 r2795M aaa9aa8
Encoding settings : cabac=1 / ref=5 / deblock=1:-1:-1 / analyse=0x3:0x113 / me=umh / subme=9 / psy=1 / psy_rd=1.00:0.15 / mixed_ref=1 / me_range=16 / chroma_me=1 / trellis=2 / 8x8dct=1 / cqm=0 / deadzone=21,11 / fast_pskip=1 / chroma_qp_offset=-3 / threads=24 / lookahead_threads=2 / sliced_threads=0 / nr=0 / decimate=1 / interlaced=0 / bluray_compat=0 / constrained_intra=0 / bframes=3 / b_pyramid=2 / b_adapt=2 / b_bias=0 / direct=3 / weightb=1 / open_gop=0 / weightp=2 / keyint=250 / keyint_min=25 / scenecut=40 / intra_refresh=0 / rc_lookahead=50 / rc=abr / mbtree=1 / bitrate=1100 / ratetol=1.0 / qcomp=0.60 / qpmin=0 / qpmax=69 / qpstep=4 / ip_ratio=1.40 / aq=1:1.00
Encoded date : UTC 2020-07-03 06:28:32
Tagged date : UTC 2020-07-03 06:28:32
Codec configuration box : avcC

Audio
ID : 2
Format : AAC LC
Format/Info : Advanced Audio Codec Low Complexity
Codec ID : mp4a-40-2
Duration : 43 min 2 s
Duration_LastFrame : -11 ms
Bit rate mode : Constant
Bit rate : 256 kb/s
Channel(s) : 2 channels
Channel layout : L R
Sampling rate : 48.0 kHz
Frame rate : 46.875 FPS (1024 SPF)
Compression mode : Lossy
Stream size : 78.8 MiB (19%)
Title : Cable.Girls.S05E01.WEBRip.x264-ION10
Language : Spanish
Default : Yes
Alternate group : 1
Encoded date : UTC 2020-07-03 06:28:32
Tagged date : UTC 2020-07-03 06:28:32

720p.x265-BvS

 

1080p.x265-BvS

 

Leave a Reply

Your email address will not be published. Required fields are marked *