Banshee All Season | 720p & 1080p AMZN WEBRip x265-BvS

An unnamed ex-convict assumes the identity of Lucas Hood the sheriff of Banshee, Pennsylvania, where he, behind a badge, continues his criminal activities, even as he’s hunted by the shadowy gangsters he betrayed years earlier.

Links: HOMEPAGE – TV.COM

Note: In English with English Selectable Subtitles

DOWNLOAD

VIP (GOOGLE DRIVE)

This content is reserved for registered users. BUY A VIP MEMBERSHIP HERE and login to be able to see it.

FREE

  • SEASON 1: 720p x265 (ONLY VIP)
  • SEASON 2: 720p x265 (ONLY VIP)
  • SEASON 3: 720p x265 (ONLY VIP)
  • SEASON 4: 720p x265 (ONLY VIP)

NFO

720p.x265-BvS

General
Unique ID : 239966866748606491271019053737817901334 (0xB487EFFB9F27160188790A87B8038916)
Complete name :Banshee – S01E01 – Pilot HDTV-720p-x265.mkv
Format : Matroska
Format version : Version 4
File size : 329 MiB
Duration : 59 min 34 s
Overall bit rate : 772 kb/s
Encoded date : UTC 2016-11-09 04:50:57
Writing application : mkvmerge v9.2.0 (‘Photograph’) 64bit
Writing library : libebml v1.3.3 + libmatroska v1.4.4

Video
ID : 1
Format : HEVC
Format/Info : High Efficiency Video Coding
Format profile : Main [email protected]@Main
Codec ID : V_MPEGH/ISO/HEVC
Duration : 59 min 33 s
Bit rate : 701 kb/s
Width : 1 280 pixels
Height : 720 pixels
Display aspect ratio : 16:9
Frame rate mode : Constant
Frame rate : 23.976 (24000/1001) FPS
Color space : YUV
Chroma subsampling : 4:2:0
Bit depth : 10 bits
Bits/(Pixel*Frame) : 0.032
Stream size : 299 MiB (91%)
Writing library : x265 2.1+20-c64393b415adf0e8:[Windows][GCC 6.2.0][64 bit] 10bit: KG7x [x265.ru] Encoding settings : wpp / ctu=64 / min-cu-size=8 / max-tu-size=32 / tu-intra-depth=1 / tu-inter-depth=1 / me=1 / subme=2 / merange=57 / no-rect / no-amp / max-merge=2 / temporal-mvp / no-early-skip / rskip / rdpenalty=0 / no-tskip / no-tskip-fast / strong-intra-smoothing / no-lossless / no-cu-lossless / no-constrained-intra / no-fast-intra / open-gop / no-temporal-layers / interlace=0 / keyint=250 / min-keyint=23 / scenecut=40 / rc-lookahead=20 / lookahead-slices=4 / bframes=4 / bframe-bias=0 / b-adapt=2 / ref=3 / limit-refs=3 / no-limit-modes / weightp / no-weightb / aq-mode=1 / qg-size=32 / aq-strength=1.00 / cbqpoffs=0 / crqpoffs=0 / rd=3 / psy-rd=2.00 / rdoq-level=0 / psy-rdoq=0.00 / log2-max-poc-lsb=8 / limit-tu=0 / no-rd-refine / signhide / deblock=0:0 / sao / no-sao-non-deblock / b-pyramid / cutree / no-intra-refresh / rc=2 / pass / bitrate=700 / qcomp=0.60 / qpmin=0 / qpmax=69 / qpstep=4 / cplxblur=20.0 / qblur=0.5 / ipratio=1.40 / pbratio=1.30
Default : Yes
Forced : No

Audio
ID : 2
Format : AAC LC SBR
Format/Info : Advanced Audio Codec Low Complexity with Spectral Band Replication
Commercial name : HE-AAC
Format settings : Explicit
Codec ID : A_AAC-2
Duration : 59 min 34 s
Bit rate : 69.8 kb/s
Channel(s) : 2 channels
Channel layout : L R
Sampling rate : 48.0 kHz
Frame rate : 23.438 FPS (2048 SPF)
Compression mode : Lossy
Delay relative to video : 31 ms
Stream size : 29.7 MiB (9%)
Language : English
Default : Yes
Forced : No

Menu
00:00:00.000 : en:00:00:00.000
00:07:38.249 : en:00:07:38.249
00:14:28.701 : en:00:14:28.701
00:23:52.598 : en:00:23:52.598
00:33:14.075 : en:00:33:14.075
00:40:05.111 : en:00:40:05.111
00:48:01.796 : en:00:48:01.796
00:58:02.979 : en:00:58:02.979

Leave a Reply

Your email address will not be published. Required fields are marked *