Altered Carbon All Season | 720p & 1080p WEBRip x265-BvS

Altered Carbon

After 250 years on ice, a prisoner returns to life in a new body with one chance to win his freedom: by solving a mind-bending murder.

Links: HOMEPAGE – TVGUiDE

Note: In English with English Selectable Subtitles

DOWNLOAD

VIP (GOOGLE DRIVE)

This content is reserved for registered users. BUY A VIP MEMBERSHIP HERE and login to be able to see it.

FREE

  • SEASON 1: 720p x265 (ONLY VIP)
  • SEASON 2: 720p x265 (ONLY VIP)

NFO

WEBRip.x264-ION10

 

720p.x265-BvS

General
Unique ID : 256070991973413846527474564539929123110 (0xC0A57AA876BDE60A2FE5530EDA14D926)
Complete name : Altered.Carbon.S01E01.Out.of.the.Past.720p.10bit.WEBRip.2CH.x265.HEVC.mkv
Format : Matroska
Format version : Version 4
File size : 291 MiB
Duration : 58 min 53 s
Overall bit rate : 690 kb/s
Movie name : PSArips.com | Altered.Carbon.S01E01.Out.of.the.Past.720p.10bit.WEBRip.2CH.x265.HEVC-PSA
Encoded date : UTC 2018-02-03 11:40:58
Writing application : mkvmerge v20.0.0 (‘I Am The Sun’) 64-bit
Writing library : libebml v1.3.5 + libmatroska v1.4.8

Video
ID : 1
Format : HEVC
Format/Info : High Efficiency Video Coding
Format profile : Main [email protected]@Main
Codec ID : V_MPEGH/ISO/HEVC
Duration : 58 min 53 s
Bit rate : 618 kb/s
Width : 1 280 pixels
Height : 640 pixels
Display aspect ratio : 2.000
Frame rate mode : Constant
Frame rate : 23.976 (24000/1001) FPS
Color space : YUV
Chroma subsampling : 4:2:0
Bit depth : 10 bits
Bits/(Pixel*Frame) : 0.031
Stream size : 260 MiB (90%)
Default : Yes
Forced : No

Audio
ID : 2
Format : AAC LC SBR
Format/Info : Advanced Audio Codec Low Complexity with Spectral Band Replication
Commercial name : HE-AAC
Format settings : Explicit
Codec ID : A_AAC-2
Duration : 58 min 2 s
Bit rate : 70.5 kb/s
Channel(s) : 2 channels
Channel layout : L R
Sampling rate : 48.0 kHz
Frame rate : 23.438 FPS (2048 SPF)
Compression mode : Lossy
Delay relative to video : 23 ms
Stream size : 29.3 MiB (10%)
Default : Yes
Forced : No

Text #1
ID : 3
Format : UTF-8
Codec ID : S_TEXT/UTF8
Codec ID/Info : UTF-8 Plain Text
Duration : 57 min 24 s
Bit rate : 72 b/s
Count of elements : 828
Stream size : 30.6 KiB (0%)
Language : English
Default : Yes
Forced : No

Text #2
ID : 4
Format : UTF-8
Codec ID : S_TEXT/UTF8
Codec ID/Info : UTF-8 Plain Text
Duration : 55 min 57 s
Bit rate : 60 b/s
Count of elements : 706
Stream size : 25.0 KiB (0%)
Language : German
Default : No
Forced : No

Text #3
ID : 5
Format : UTF-8
Codec ID : S_TEXT/UTF8
Codec ID/Info : UTF-8 Plain Text
Duration : 55 min 58 s
Bit rate : 60 b/s
Count of elements : 716
Stream size : 24.7 KiB (0%)
Language : Spanish
Default : No
Forced : No

Text #4
ID : 6
Format : UTF-8
Codec ID : S_TEXT/UTF8
Codec ID/Info : UTF-8 Plain Text
Duration : 55 min 55 s
Bit rate : 57 b/s
Count of elements : 708
Stream size : 23.6 KiB (0%)
Language : French
Default : No
Forced : No

Text #5
ID : 7
Format : UTF-8
Codec ID : S_TEXT/UTF8
Codec ID/Info : UTF-8 Plain Text
Duration : 55 min 58 s
Bit rate : 54 b/s
Count of elements : 685
Stream size : 22.4 KiB (0%)
Language : Dutch
Default : No
Forced : No

1080p.x265-BvS

 

Leave a Reply

Your email address will not be published. Required fields are marked *