The Flight Attendant All Season | 720p & 1080p AMZN WEBRip x265-BvS

The tragic tale of the Baudelaire orphans – Violet, Klaus, and Sunny – whose evil guardian Count Olaf will stop at nothing to get his hands on their inheritance. After the loss of their parents in a mysterious fire, the three extraordinary siblings must outsmart Olaf at every turn, foiling his many devious plans and disguises, in their fateful quest to unlock long-held family secrets.

Links: HOMEPAGE – iMDB

Note: In English with English Selectable Subtitles

DOWNLOAD

VIP (GOOGLE DRIVE)

This content is reserved for registered users. BUY A VIP MEMBERSHIP HERE and login to be able to see it.

FREE

  • SEASON 1: 720p x265 (ONLY VIP)
  • SEASON 1: 1080p x265 (ONLY VIP)
  • SEASON 2: 720p x265 (ONLY VIP)
  • SEASON 2: 1080p x265 (ONLY VIP)
  • SEASON 3: 720p x265 (ONLY VIP)
  • SEASON 3: 1080p x265 (ONLY VIP)

NFO

720p.x265-BvS

General
Unique ID : 184468466317999242599768320915379726665 (0x8AC7559530882AC8A5F9B8216FF22949)
Complete name : A.Series.of.Unfortunate.Events.S01E01.The.Bad.Beginning.Part.1.720p.10bit.WEBRip.2CH.x265.HEVC.mkv
Format : Matroska
Format version : Version 4
File size : 274 MiB
Duration : 49 min 42 s
Overall bit rate : 770 kb/s
Movie name :A.Series.of.Unfortunate.Events.S01E01.The.Bad.Beginning.Part.1.720p.10bit.WEBRip.2CH.x265.HEVC-PSA
Encoded date : UTC 2017-01-14 08:55:41
Writing application : mkvmerge v9.7.1 (‘Pandemonium’) 64bit
Writing library : libebml v1.3.4 + libmatroska v1.4.5

Video
ID : 1
Format : HEVC
Format/Info : High Efficiency Video Coding
Format profile : Main [email protected]@Main
Codec ID : V_MPEGH/ISO/HEVC
Duration : 48 min 48 s
Bit rate : 713 kb/s
Width : 1 280 pixels
Height : 640 pixels
Display aspect ratio : 2.000
Frame rate mode : Constant
Frame rate : 24.000 FPS
Color space : YUV
Chroma subsampling : 4:2:0
Bit depth : 10 bits
Bits/(Pixel*Frame) : 0.036
Stream size : 249 MiB (91%)
Default : Yes
Forced : No

Audio
ID : 2
Format : AAC LC SBR
Format/Info : Advanced Audio Codec Low Complexity with Spectral Band Replication
Commercial name : HE-AAC
Format settings : Explicit
Codec ID : A_AAC-2
Duration : 49 min 42 s
Bit rate : 67.7 kb/s
Channel(s) : 2 channels
Channel layout : L R
Sampling rate : 48.0 kHz
Frame rate : 23.438 FPS (2048 SPF)
Compression mode : Lossy
Delay relative to video : 23 ms
Stream size : 24.1 MiB (9%)
Default : Yes
Forced : No

Text
ID : 3
Format : UTF-8
Codec ID : S_TEXT/UTF8
Codec ID/Info : UTF-8 Plain Text
Duration : 47 min 34 s
Bit rate : 89 b/s
Count of elements : 814
Stream size : 31.2 KiB (0%)
Default : Yes
Forced : No

1080p.x265-BvS

General
Unique ID : 231952424270116494831628605289613965015 (0xAE8069760C02B9B291E4E2B1C9BB36D7)
Complete name : A.Series.of.Unfortunate.Events.S01E01.The.Bad.Beginning.Part.1.1080p.10bit.WEBRip.6CH.x265.HEVC.mkv
Format : Matroska
Format version : Version 4
File size : 744 MiB
Duration : 49 min 42 s
Overall bit rate : 2 094 kb/s
Movie name :A.Series.of.Unfortunate.Events.S01E01.The.Bad.Beginning.Part.1.1080p.10bit.WEBRip.6CH.x265.HEVC-PSA
Encoded date : UTC 2017-01-14 08:56:04
Writing application : mkvmerge v9.7.1 (‘Pandemonium’) 64bit
Writing library : libebml v1.3.4 + libmatroska v1.4.5

Video
ID : 1
Format : HEVC
Format/Info : High Efficiency Video Coding
Format profile : Main [email protected]@Main
Codec ID : V_MPEGH/ISO/HEVC
Duration : 48 min 48 s
Bit rate : 1 920 kb/s
Width : 1 920 pixels
Height : 960 pixels
Display aspect ratio : 2.000
Frame rate mode : Constant
Frame rate : 24.000 FPS
Color space : YUV
Chroma subsampling : 4:2:0
Bit depth : 10 bits
Bits/(Pixel*Frame) : 0.043
Stream size : 670 MiB (90%)
Default : Yes
Forced : No

Audio
ID : 2
Format : AAC LC SBR
Format/Info : Advanced Audio Codec Low Complexity with Spectral Band Replication
Commercial name : HE-AAC
Format settings : Explicit
Codec ID : A_AAC-2
Duration : 49 min 42 s
Bit rate : 206 kb/s
Channel(s) : 6 channels
Channel layout : C L R Ls Rs LFE
Sampling rate : 48.0 kHz
Frame rate : 23.438 FPS (2048 SPF)
Compression mode : Lossy
Delay relative to video : 23 ms
Stream size : 73.4 MiB (10%)
Default : Yes
Forced : No

Text
ID : 3
Format : UTF-8
Codec ID : S_TEXT/UTF8
Codec ID/Info : UTF-8 Plain Text
Duration : 47 min 34 s
Bit rate : 89 b/s
Count of elements : 814
Stream size : 31.2 KiB (0%)
Default : Yes
Forced : No

Leave a Reply

Your email address will not be published. Required fields are marked *