Star Wars – Episode III – Revenge of the Sith (2005) 2160p BluRay x265 HEVC 10bit HDR AAC 7.1 Tigole [MEGA]

Star-Wars---Episode-III---Revenge-of-the-Sith-(2005)-(2160p-BluRay-x265-HEVC-10bit-HDR-AAC-7.1-Tigole)
Three years into the Clone Wars, the Jedi rescue Palpatine from Count Dooku. As Obi-Wan pursues a new threat, Anakin acts as a double agent between the Jedi Council and Palpatine and is lured into a sinister plan to rule the galaxy.

Links: iMDB Trailer

Star Wars – Episode III – Revenge of the Sith (2005) (2160p BluRay x265 HEVC 10bit HDR AAC 7.1 Tigole)
MKV-HEVC | 3840×1608 | English | Subs.ENG/FRE/GER | AAC 7.1 | 5.53GB

This content is reserved for registered users. Sign up here o login to be able to see it. Buy your VIP membership

MEGA – 1FICHIER

NFO

General
Unique ID : 186449043775501706321862736822905858453 (0x8C44C7973491C5F0AA90DB77CE97E995)
Complete name : Star Wars – Episode II – Attack of the Clones (2002) (2160p BluRay x265 10bit HDR Tigole).mkv
Format : Matroska
Format version : Version 4
File size : 5.53 GiB
Duration : 2 h 22 min
Overall bit rate : 5 558 kb/s
Movie name : Star Wars: Attack of the Clones
Encoded date : UTC 2020-07-20 11:19:30
Writing application : mkvmerge v38.0.0 (‘The Silent Type’) 64-bit
Writing library : libebml v1.3.9 + libmatroska v1.5.2

Video
ID : 1
Format : HEVC
Format/Info : High Efficiency Video Coding
Format profile : Main [email protected]@Main
HDR format : SMPTE ST 2086, HDR10 compatible
Codec ID : V_MPEGH/ISO/HEVC
Duration : 2 h 22 min
Bit rate : 4 591 kb/s
Width : 3 840 pixels
Height : 1 608 pixels
Display aspect ratio : 2.40:1
Frame rate mode : Constant
Frame rate : 23.976 (24000/1001) FPS
Color space : YUV
Chroma subsampling : 4:2:0
Bit depth : 10 bits
Bits/(Pixel*Frame) : 0.031
Stream size : 4.57 GiB (83%)
Writing library : x265 3.2+23-52135ffd9bcd:[Windows][GCC 9.2.0][64 bit] 10bit
Encoding settings : cpuid=1111039 / frame-threads=3 / numa-pools=8 / wpp / no-pmode / no-pme / no-psnr / no-ssim / log-level=2 / input-csp=1 / input-res=3840×1608 / interlace=0 / total-frames=205006 / level-idc=0 / high-tier=1 / uhd-bd=0 / ref=4 / no-allow-non-conformance / repeat-headers / annexb / no-aud / no-hrd / info / hash=0 / no-temporal-layers / open-gop / min-keyint=23 / keyint=250 / gop-lookahead=0 / bframes=8 / b-adapt=2 / b-pyramid / bframe-bias=0 / rc-lookahead=25 / lookahead-slices=4 / scenecut=40 / hist-scenecut=0 / radl=0 / no-splice / no-intra-refresh / ctu=64 / min-cu-size=8 / rect / no-amp / max-tu-size=32 / tu-inter-depth=1 / tu-intra-depth=1 / limit-tu=0 / rdoq-level=2 / dynamic-rd=0.00 / no-ssim-rd / signhide / no-tskip / nr-intra=0 / nr-inter=0 / no-constrained-intra / strong-intra-smoothing / max-merge=3 / limit-refs=3 / limit-modes / me=3 / subme=3 / merange=57 / temporal-mvp / no-frame-dup / no-hme / weightp / no-weightb / no-analyze-src-pics / deblock=0:0 / no-sao / no-sao-non-deblock / rd=4 / selective-sao=0 / no-early-skip / rskip / no-fast-intra / no-tskip-fast / no-cu-lossless / no-b-intra / no-splitrd-skip / rdpenalty=0 / psy-rd=2.00 / psy-rdoq=1.00 / no-rd-refine / no-lossless / cbqpoffs=0 / crqpoffs=0 / rc=crf / crf=16.0 / qcomp=0.60 / qpstep=4 / stats-write=0 / stats-read=0 / ipratio=1.40 / pbratio=1.30 / aq-mode=2 / aq-strength=1.00 / cutree / zone-count=0 / no-strict-cbr / qg-size=32 / no-rc-grain / qpmax=69 / qpmin=0 / no-const-vbv / sar=0 / overscan=0 / videoformat=5 / range=0 / colorprim=9 / transfer=16 / colormatrix=9 / chromaloc=0 / display-window=0 / master-display=G(8500,39850)B(6550,2300)R(35400,14600)WP(15635,16450)L(10000000,1) / cll=0,0 / min-luma=0 / max-luma=1023 / log2-max-poc-lsb=8 / vui-timing-info / vui-hrd-info / slices=1 / no-opt-qp-pps / no-opt-ref-list-length-pps / no-multi-pass-opt-rps / scenecut-bias=0.05 / hist-threshold=0.01 / no-opt-cu-delta-qp / aq-motion / hdr / hdr-opt / no-dhdr10-opt / no-idr-recovery-sei / analysis-reuse-level=5 / scale-factor=0 / refine-intra=0 / refine-inter=0 / refine-mv=1 / refine-ctu-distortion=0 / no-limit-sao / ctu-info=0 / no-lowpass-dct / refine-analysis-type=0 / copy-pic=1 / max-ausize-factor=1.0 / no-dynamic-refine / no-single-sei / no-hevc-aq / no-svt / no-field / qp-adaptation-range=1.00 / no-scenecut-aware-qp
Default : Yes
Forced : No
Color range : Limited
Color primaries : BT.2020
Transfer characteristics : PQ
Matrix coefficients : BT.2020 non-constant
Mastering display color primaries : BT.2020
Mastering display luminance : min: 0.0001 cd/m2, max: 1000 cd/m2

Audio
ID : 2
Format : AAC LC
Format/Info : Advanced Audio Codec Low Complexity
Codec ID : A_AAC-2
Duration : 2 h 22 min
Bit rate : 928 kb/s
Channel(s) : 8 channels
Channel layout : C L R Ls Rs Lb Rb LFE
Sampling rate : 48.0 kHz
Frame rate : 46.875 FPS (1024 SPF)
Compression mode : Lossy
Delay relative to video : 20 ms
Stream size : 946 MiB (17%)
Language : English
Default : Yes
Forced : No

Text #1
ID : 3
Format : VobSub
Muxing mode : zlib
Codec ID : S_VOBSUB
Codec ID/Info : Picture based subtitle format used on DVDs
Duration : 2 h 13 min
Bit rate : 8 423 b/s
Count of elements : 1327
Stream size : 8.04 MiB (0%)
Language : English
Default : No
Forced : No

Text #2
ID : 4
Format : VobSub
Muxing mode : zlib
Codec ID : S_VOBSUB
Codec ID/Info : Picture based subtitle format used on DVDs
Duration : 2 h 13 min
Bit rate : 7 350 b/s
Count of elements : 1088
Stream size : 7.02 MiB (0%)
Language : Danish
Default : No
Forced : No

Text #3
ID : 5
Format : VobSub
Muxing mode : zlib
Codec ID : S_VOBSUB
Codec ID/Info : Picture based subtitle format used on DVDs
Duration : 2 h 13 min
Bit rate : 6 442 b/s
Count of elements : 1189
Stream size : 6.15 MiB (0%)
Language : Finnish
Default : No
Forced : No

Text #4
ID : 6
Format : VobSub
Muxing mode : zlib
Codec ID : S_VOBSUB
Codec ID/Info : Picture based subtitle format used on DVDs
Duration : 2 h 22 min
Bit rate : 6 763 b/s
Count of elements : 1187
Stream size : 6.87 MiB (0%)
Language : French
Default : No
Forced : No

Text #5
ID : 7
Format : VobSub
Muxing mode : zlib
Codec ID : S_VOBSUB
Codec ID/Info : Picture based subtitle format used on DVDs
Duration : 2 h 13 min
Bit rate : 9 251 b/s
Count of elements : 1185
Stream size : 8.84 MiB (0%)
Language : German
Default : No
Forced : No

Text #6
ID : 8
Format : VobSub
Muxing mode : zlib
Codec ID : S_VOBSUB
Codec ID/Info : Picture based subtitle format used on DVDs
Duration : 2 h 1 min
Bit rate : 143 b/s
Count of elements : 26
Stream size : 128 KiB (0%)
Title : Forced
Language : German
Default : No
Forced : No

Text #7
ID : 9
Format : VobSub
Muxing mode : zlib
Codec ID : S_VOBSUB
Codec ID/Info : Picture based subtitle format used on DVDs
Duration : 2 h 13 min
Bit rate : 7 980 b/s
Count of elements : 1231
Stream size : 7.62 MiB (0%)
Language : Italian
Default : No
Forced : No

Text #8
ID : 10
Format : VobSub
Muxing mode : zlib
Codec ID : S_VOBSUB
Codec ID/Info : Picture based subtitle format used on DVDs
Duration : 2 h 13 min
Bit rate : 6 704 b/s
Count of elements : 1077
Stream size : 6.41 MiB (0%)
Language : Norwegian Bokmal
Default : No
Forced : No

Text #9
ID : 11
Format : VobSub
Muxing mode : zlib
Codec ID : S_VOBSUB
Codec ID/Info : Picture based subtitle format used on DVDs
Duration : 2 h 13 min
Bit rate : 6 795 b/s
Count of elements : 1041
Stream size : 6.49 MiB (0%)
Language : Swedish
Default : No
Forced : No

Menu
00:00:00.000 : en:Chapter 01
00:00:24.065 : en:Chapter 02
00:01:51.194 : en:Chapter 03
00:04:22.679 : en:Chapter 04
00:07:00.711 : en:Chapter 05
00:10:29.378 : en:Chapter 06
00:14:20.568 : en:Chapter 07
00:21:35.877 : en:Chapter 08
00:24:48.904 : en:Chapter 09
00:29:46.743 : en:Chapter 10
00:31:33.975 : en:Chapter 11
00:33:49.110 : en:Chapter 12
00:34:51.214 : en:Chapter 13
00:36:05.496 : en:Chapter 14
00:38:26.512 : en:Chapter 15
00:39:25.946 : en:Chapter 16
00:40:56.912 : en:Chapter 17
00:42:13.405 : en:Chapter 18
00:44:02.640 : en:Chapter 19
00:45:51.081 : en:Chapter 20
00:47:50.742 : en:Chapter 21
00:50:21.435 : en:Chapter 22
00:53:02.012 : en:Chapter 23
00:56:45.443 : en:Chapter 24
00:58:57.033 : en:Chapter 25
01:00:46.684 : en:Chapter 26
01:03:41.818 : en:Chapter 27
01:06:24.855 : en:Chapter 28
01:11:19.316 : en:Chapter 29
01:14:01.854 : en:Chapter 30
01:15:23.977 : en:Chapter 31
01:17:49.164 : en:Chapter 32
01:21:41.021 : en:Chapter 33
01:23:47.522 : en:Chapter 34
01:28:10.743 : en:Chapter 35
01:30:53.573 : en:Chapter 36
01:33:39.155 : en:Chapter 37
01:35:28.472 : en:Chapter 38
01:42:45.200 : en:Chapter 39
01:45:14.683 : en:Chapter 40
01:49:54.254 : en:Chapter 41
01:56:23.142 : en:Chapter 42
01:57:48.269 : en:Chapter 43
02:00:29.555 : en:Chapter 44
02:04:49.648 : en:Chapter 45
02:07:42.613 : en:Chapter 46
02:11:24.334 : en:Chapter 47
02:12:55.509 : en:Chapter 48
02:14:49.915 : en:Chapter 49
02:15:55.605 : en:Chapter 50

(He/Him) He's BvSRips. I dedicate myself to sharing files on this blog for free. But it is difficult to maintain the links online for a long time, they are denounced and deleted, reuploading costs more work, that is why a section for VIP users was created, where they can download all the files published 100% in MEGA, as premium, without spend more. I would greatly appreciate your collaboration so that this blog remains online for a longer time.

BUY VIP HERE

You may also like...

Leave a Reply

Your email address will not be published. Required fields are marked *