Come Out Fighting (2022) | 720P & 1080P & 2160P BLURAY X265-BVS

Come Out Fighting (2022)

Set during WWII, in this military adventure thriller, a small, and a specialized squad of U.S. Army U.S. soldiers and African American soldiers are sent on an unofficial rescue mission behind enemy lines to locate their missing commanding officer. The squad upon battling their way through their German defenses encounter more then they bargain for when they locate a downed U.S. Army fighter pilot. With the help of their friends at the 761st tank battalion helm, The squad must fend a way to survive and make it back in one piece with American peace.

Links: iMDB | Trailer

Note: In English with English Selectable Subtitles

DOWNLOAD

VIP (MEGA FOLDER)

This content is reserved for registered users. Sign up here o login to be able to see it. Buy your VIP membership

FREE

NFO

Come.Out.Fighting.2022.1080p.AMZN.WEB-DL.DDP5.1.H.264-FLUX

General
Complete name : Come.Out.Fighting.2022.1080p.AMZN.WEB-DL.DDP5.1.H.264-FLUX.mkv
Format : Matroska
Format version : Version 4
File size : 5.54 GiB
Duration : 1 h 25 min
Overall bit rate : 9 238 kb/s
Writing application : mkvmerge v76.0 (‘Celebration’) 64-bit
Writing library : libebml v1.4.4 + libmatroska v1.7.1

Video
ID : 1
Format : AVC
Format/Info : Advanced Video Codec
Format profile : [email protected]
Format settings : CABAC / 4 Ref Frames
Format settings, CABAC : Yes
Format settings, Reference frames : 4 frames
Codec ID : V_MPEG4/ISO/AVC
Duration : 1 h 25 min
Bit rate mode : Constant
Bit rate : 8 596 kb/s
Nominal bit rate : 10 000 kb/s
Width : 1 920 pixels
Height : 1 080 pixels
Display aspect ratio : 16:9
Frame rate mode : Constant
Frame rate : 23.976 (24000/1001) FPS
Color space : YUV
Chroma subsampling : 4:2:0
Bit depth : 8 bits
Scan type : Progressive
Bits/(Pixel*Frame) : 0.173
Stream size : 5.16 GiB (93%)
Default : Yes
Forced : No
Color range : Limited
Color primaries : BT.709
Transfer characteristics : BT.709
Matrix coefficients : BT.709

Audio
ID : 2
Format : E-AC-3
Format/Info : Enhanced AC-3
Commercial name : Dolby Digital Plus
Codec ID : A_EAC3
Duration : 1 h 25 min
Bit rate mode : Constant
Bit rate : 640 kb/s
Channel(s) : 6 channels
Channel layout : L R C LFE Ls Rs
Sampling rate : 48.0 kHz
Frame rate : 31.250 FPS (1536 SPF)
Compression mode : Lossy
Stream size : 393 MiB (7%)
Language : English
Service kind : Complete Main
Default : Yes
Forced : No

Text #1
ID : 3
Format : UTF-8
Codec ID : S_TEXT/UTF8
Codec ID/Info : UTF-8 Plain Text
Duration : 1 h 20 min
Bit rate : 41 b/s
Count of elements : 1067
Stream size : 24.4 KiB (0%)
Language : English
Default : No
Forced : No

Text #2
ID : 4
Format : UTF-8
Codec ID : S_TEXT/UTF8
Codec ID/Info : UTF-8 Plain Text
Duration : 1 h 21 min
Bit rate : 44 b/s
Count of elements : 1214
Stream size : 26.8 KiB (0%)
Title : SDH
Language : English
Default : No
Forced : No

Menu
00:00:00.000 : en:Studio Logo
00:00:29.000 : en:Scene 2
00:05:27.000 : en:Title Sequence
00:05:36.000 : en:Opening Credits
00:05:56.000 : en:Scene 5
00:06:05.000 : en:Scene 6
00:06:09.000 : en:Scene 7
00:06:19.000 : en:Opening Credits
00:06:49.000 : en:Scene 9
00:15:34.000 : en:Scene 10
00:24:36.000 : en:Scene 11
00:33:13.000 : en:Scene 12
00:41:15.000 : en:Scene 13
00:50:18.000 : en:Scene 14
00:57:00.000 : en:Scene 15
01:05:07.000 : en:Scene 16
01:10:23.000 : en:Scene 17
01:18:17.000 : en:Scene 18
01:22:20.000 : en:End Credits
01:25:44.000 : en:Title Sequence

Come.Out.Fighting.2022.1080p.amzn.webrip.x265-BvS

General
Complete name : Come.Out.Fighting.2022.1080p.amzn.webrip.x265-BvS.mkv
Format : Matroska
Format version : Version 4
File size : 1.32 GiB
Duration : 1 h 25 min
Overall bit rate : 2 194 kb/s
Movie name : BvSRips
Encoded date : UTC 2023-05-21 23:51:54
Writing application : mkvmerge v68.0.0 (‘The Curtain’) 64-bit
Writing library : libebml v1.4.2 + libmatroska v1.6.4

Video
ID : 1
Format : HEVC
Format/Info : High Efficiency Video Coding
Format profile : [email protected]@Main
Codec ID : V_MPEGH/ISO/HEVC
Duration : 1 h 25 min
Bit rate : 1 936 kb/s
Width : 1 920 pixels
Height : 1 080 pixels
Display aspect ratio : 16:9
Frame rate mode : Constant
Frame rate : 23.976 (24000/1001) FPS
Color space : YUV
Chroma subsampling : 4:2:0 (Type 0)
Bit depth : 8 bits
Bits/(Pixel*Frame) : 0.039
Stream size : 1.16 GiB (88%)
Writing library : x265 3.5+1-f0c1022b6:[Windows][GCC 10.2.0][64 bit] 8bit+10bit+12bit
Encoding settings : cpuid=1111039 / frame-threads=3 / numa-pools=12 / wpp / no-pmode / no-pme / psnr / no-ssim / log-level=2 / input-csp=1 / input-res=1920×1080 / interlace=0 / total-frames=0 / level-idc=0 / high-tier=1 / uhd-bd=0 / ref=3 / no-allow-non-conformance / no-repeat-headers / annexb / no-aud / no-eob / no-eos / no-hrd / info / hash=0 / no-temporal-layers / open-gop / min-keyint=24 / keyint=240 / gop-lookahead=0 / bframes=4 / b-adapt=0 / b-pyramid / bframe-bias=0 / rc-lookahead=15 / lookahead-slices=6 / scenecut=40 / no-hist-scenecut / radl=0 / no-splice / no-intra-refresh / ctu=64 / min-cu-size=8 / no-rect / no-amp / max-tu-size=32 / tu-inter-depth=1 / tu-intra-depth=1 / limit-tu=0 / rdoq-level=0 / dynamic-rd=0.00 / no-ssim-rd / signhide / no-tskip / nr-intra=0 / nr-inter=0 / no-constrained-intra / strong-intra-smoothing / max-merge=2 / limit-refs=3 / no-limit-modes / me=1 / subme=2 / merange=57 / temporal-mvp / no-frame-dup / no-hme / weightp / no-weightb / no-analyze-src-pics / deblock=0:0 / sao / no-sao-non-deblock / rd=2 / selective-sao=4 / no-early-skip / rskip / fast-intra / no-tskip-fast / no-cu-lossless / no-b-intra / no-splitrd-skip / rdpenalty=0 / psy-rd=0.00 / psy-rdoq=0.00 / no-rd-refine / no-lossless / cbqpoffs=0 / crqpoffs=0 / rc=crf / crf=22.5 / qcomp=0.60 / qpstep=4 / stats-write=0 / stats-read=0 / ipratio=1.40 / pbratio=1.30 / aq-mode=2 / aq-strength=0.00 / cutree / zone-count=0 / no-strict-cbr / qg-size=32 / no-rc-grain / qpmax=69 / qpmin=0 / no-const-vbv / sar=1 / overscan=0 / videoformat=5 / range=0 / colorprim=1 / transfer=1 / colormatrix=1 / chromaloc=1 / chromaloc-top=0 / chromaloc-bottom=0 / display-window=0 / cll=0,0 / min-luma=0 / max-luma=255 / log2-max-poc-lsb=8 / vui-timing-info / vui-hrd-info / slices=1 / no-opt-qp-pps / no-opt-ref-list-length-pps / no-multi-pass-opt-rps / scenecut-bias=0.05 / no-opt-cu-delta-qp / no-aq-motion / no-sbrc / no-hdr10 / no-hdr10-opt / no-dhdr10-opt / no-idr-recovery-sei / analysis-reuse-level=0 / analysis-save-reuse-level=0 / analysis-load-reuse-level=0 / scale-factor=0 / refine-intra=0 / refine-inter=0 / refine-mv=1 / refine-ctu-distortion=0 / no-limit-sao / ctu-info=0 / no-lowpass-dct / refine-analysis-type=0 / copy-pic=1 / max-ausize-factor=1.0 / no-dynamic-refine / no-single-sei / no-hevc-aq / no-svt / no-field / qp-adaptation-range=1.00 / scenecut-aware-qp=0conformance-window-offsets / right=0 / bottom=0 / decoder-max-rate=0 / no-vbv-live-multi-pass / no-mcstf
Default : Yes
Forced : No
Color range : Limited
Color primaries : BT.709
Transfer characteristics : BT.709
Matrix coefficients : BT.709

Audio
ID : 2
Format : AAC LC SBR
Format/Info : Advanced Audio Codec Low Complexity with Spectral Band Replication
Commercial name : HE-AAC
Format settings : NBC
Codec ID : A_AAC-5
Duration : 1 h 25 min
Bit rate : 256 kb/s
Channel(s) : 6 channels
Channel layout : C L R Ls Rs LFE
Sampling rate : 48.0 kHz
Frame rate : 23.438 FPS (2048 SPF)
Compression mode : Lossy
Delay relative to video : -105 ms
Stream size : 157 MiB (12%)
Language : English
Default : Yes
Forced : No

Text #1
ID : 3
Format : UTF-8
Codec ID : S_TEXT/UTF8
Codec ID/Info : UTF-8 Plain Text
Duration : 1 h 20 min
Bit rate : 41 b/s
Count of elements : 1067
Stream size : 24.4 KiB (0%)
Language : English
Default : Yes
Forced : No

Text #2
ID : 4
Format : ASS
Codec ID : S_TEXT/ASS
Codec ID/Info : Advanced Sub Station Alpha
Duration : 4 s 500 ms
Bit rate : 149 b/s
Count of elements : 1
Compression mode : Lossless
Stream size : 84.0 Bytes (0%)
Default : Yes
Forced : Yes

 

(He/Him) He's BvSRips. I dedicate myself to sharing files on this blog for free. But it is difficult to maintain the links online for a long time, they are denounced and deleted, reuploading costs more work, that is why a section for VIP users was created, where they can download all the files published 100% in MEGA, as premium, without spend more. I would greatly appreciate your collaboration so that this blog remains online for a longer time.

BUY VIP HERE

Leave a Reply

Your email address will not be published. Required fields are marked *