Why Women Kill All Season | 720p & 1080p AMZN WEBRip x265-BvS

Three women living in three different decades: a housewife in the ’60s, a socialite in the ’80s and a lawyer in 2019, deal with infidelity in their marriages.

Links: HOMEPAGE – TVDB

Note: In English with English Selectable Subtitles 

DOWNLOAD

VIP (GOOGLE DRIVE)

This content is reserved for registered users. Sign up here o login to be able to see it.

FREE

  • SEASON 1: 720p x265 (ONLY VIP)

NFO

WEBRip.x264-ION10

 

720p.x265-BvS

General
Unique ID : 225557491199999440115922233397278592191 (0xA9B0CAEAFFA3AFA9AEE4C1F0B0B6CCBF)
Complete name : Why.Women.Kill.S01E01.Murder.Means.Never.Having.to.Say.You’re.Sorry.720p.WEBRip.2CH.x265.HEVC.mkv
Format : Matroska
Format version : Version 4
File size : 239 MiB
Duration : 49 min 57 s
Overall bit rate : 670 kb/s
Movie name : PSArips.com | Why.Women.Kill.S01E01.Murder.Means.Never.Having.to.Say.You’re.Sorry.720p.WEBRip.2CH.x265.HEVC-PSA
Encoded date : UTC 2019-08-16 04:23:43
Writing application : mkvmerge v36.0.0 (‘Is That Jazz?’) 64-bit
Writing library : libebml v1.3.9 + libmatroska v1.5.2

Video
ID : 1
Format : HEVC
Format/Info : High Efficiency Video Coding
Format profile : [email protected]@Main
Codec ID : V_MPEGH/ISO/HEVC
Duration : 49 min 57 s
Bit rate : 599 kb/s
Width : 1 280 pixels
Height : 544 pixels
Display aspect ratio : 2.35:1
Frame rate mode : Constant
Frame rate : 24.000 FPS
Color space : YUV
Chroma subsampling : 4:2:0
Bit depth : 8 bits
Bits/(Pixel*Frame) : 0.036
Stream size : 214 MiB (89%)
Default : Yes
Forced : No

Audio
ID : 2
Format : AAC LC SBR
Format/Info : Advanced Audio Codec Low Complexity with Spectral Band Replication
Commercial name : HE-AAC
Format settings : Explicit
Codec ID : A_AAC-2
Duration : 49 min 57 s
Bit rate : 69.1 kb/s
Channel(s) : 2 channels
Channel layout : L R
Sampling rate : 48.0 kHz
Frame rate : 23.438 FPS (2048 SPF)
Compression mode : Lossy
Delay relative to video : 23 ms
Stream size : 24.7 MiB (10%)
Language : English
Default : Yes
Forced : No

Text
ID : 3
Format : UTF-8
Codec ID : S_TEXT/UTF8
Codec ID/Info : UTF-8 Plain Text
Duration : 46 min 1 s
Bit rate : 72 b/s
Count of elements : 891
Stream size : 24.5 KiB (0%)
Language : English
Default : Yes
Forced : No

1080p.x265

 

Leave a Reply

Your email address will not be published. Required fields are marked *