What We Do in the Shadows All Season | 720p & 1080p AMZN WEBRip x265-BvS

What We Do in the Shadows

A documentary-style look into the daily (or rather, nightly) lives of three vampires in Staten Island who have “lived” together for hundreds and hundreds of years.

Links: HOMEPAGE – TVGuide

DOWNLOAD

VIP (GOOGLE DRIVE)

This content is reserved for registered users. Sign up here o login to be able to see it.

FREE

NFO

720p.WEBRip.x265

General
Unique ID : 288915145321341081522505013869109027159 (0xD95B08711FC1EC6C3F548EB1926BA157)
Complete name : What.We.Do.in.the.Shadows.S01E01.Pilot.720p.WEBRip.2CH.x265.HEVC.mkv
Format : Matroska
Format version : Version 4
File size : 176 MiB
Duration : 28 min 59 s
Overall bit rate : 851 kb/s
Movie name : What.We.Do.in.the.Shadows.S01E01.Pilot.720p.WEBRip.2CH.x265.HEVC-PSA [enthus1ast.com] Encoded date : UTC 2019-03-29 08:26:24
Writing application : mkvmerge v32.0.0 (‘Astral Progressions’) 64-bit
Writing library : libebml v1.3.7 + libmatroska v1.5.0

Video
ID : 1
Format : HEVC
Format/Info : High Efficiency Video Coding
Format profile : [email protected]@Main
Codec ID : V_MPEGH/ISO/HEVC
Duration : 28 min 59 s
Bit rate : 789 kb/s
Width : 1 280 pixels
Height : 720 pixels
Display aspect ratio : 16:9
Frame rate mode : Constant
Frame rate : 23.976 (24000/1001) FPS
Color space : YUV
Chroma subsampling : 4:2:0
Bit depth : 8 bits
Bits/(Pixel*Frame) : 0.036
Stream size : 164 MiB (93%)
Default : Yes
Forced : No

Audio
ID : 2
Format : AAC LC SBR
Format/Info : Advanced Audio Codec Low Complexity with Spectral Band Replication
Commercial name : HE-AAC
Format settings : Explicit
Codec ID : A_AAC-2
Duration : 28 min 59 s
Bit rate : 59.8 kb/s
Channel(s) : 2 channels
Channel layout : L R
Sampling rate : 48.0 kHz
Frame rate : 23.438 FPS (2048 SPF)
Compression mode : Lossy
Delay relative to video : 23 ms
Stream size : 12.4 MiB (7%)
Language : English
Default : Yes
Forced : No

Text
ID : 3
Format : UTF-8
Codec ID : S_TEXT/UTF8
Codec ID/Info : UTF-8 Plain Text
Duration : 28 min 58 s
Bit rate : 93 b/s
Count of elements : 696
Stream size : 19.8 KiB (0%)
Language : English
Default : Yes
Forced : No

 

1080p.x265-BvS

 

Leave a Reply

Your email address will not be published. Required fields are marked *