V for Vendetta 2005 UHD BluRay 2160p TrueHD Atmos 7.1 HEVC REMUX-FraMeSToR [MEGA]

V-for-Vendetta-2005-UHD-BluRay-2160p-TrueHD-Atmos-7.1-HEVC-REMUX-FraMeSToR

In a future British tyranny, a shadowy freedom fighter, known only by the alias of “V”, plots to overthrow it with the help of a young woman.

Links: iMDB Trailer

V.for.Vendetta.2005.UHD.BluRay.2160p.TrueHD.Atmos.7.1.HEVC.REMUX-FraMeSToR
MKV-HEVC | 3840×2160 | English | TrueHD Atmos 7.1 | Subs/ENG/GER/FRE/SPA | 66.80GB

This content is reserved for registered users. Sign up here o login to be able to see it. Buy your VIP membership

MEGA – 1FICHIER

NFO

General
Unique ID : 145958726949997394903384884020334999212 (0x6DCEA0D77786F4333EB3413FD0C6B6AC)
Complete name : V.for.Vendetta.2005.UHD.BluRay.2160p.TrueHD.Atmos.7.1.HEVC.REMUX-FraMeSToR.mkv
Format : Matroska
Format version : Version 4
File size : 66.0 GiB
Duration : 2 h 12 min
Overall bit rate mode : Variable
Overall bit rate : 71.3 Mb/s
Movie name : V for Vendetta 4K
Encoded date : UTC 2020-10-31 13:09:12
Writing application : mkvmerge v51.0.0 (‘I Wish’) 64-bit
Writing library : libebml v1.4.0 + libmatroska v1.6.2
IMDB : tt0434409
TMDB : movie/752

Video
ID : 1
Format : HEVC
Format/Info : High Efficiency Video Coding
Format profile : Main [email protected]@High
HDR format : SMPTE ST 2086, HDR10 compatible
Codec ID : V_MPEGH/ISO/HEVC
Duration : 2 h 12 min
Bit rate : 65.6 Mb/s
Width : 3 840 pixels
Height : 2 160 pixels
Display aspect ratio : 16:9
Frame rate mode : Constant
Frame rate : 23.976 (24000/1001) FPS
Color space : YUV
Chroma subsampling : 4:2:0 (Type 2)
Bit depth : 10 bits
Bits/(Pixel*Frame) : 0.330
Stream size : 60.8 GiB (92%)
Writing library : ATEME Titan File 3.9.6 (4.9.6.2)
Default : Yes
Forced : No
Color range : Limited
Color primaries : BT.2020
Transfer characteristics : PQ
Matrix coefficients : BT.2020 non-constant
Mastering display color primaries : Display P3
Mastering display luminance : min: 0.0050 cd/m2, max: 4000 cd/m2
Maximum Content Light Level : 2491 cd/m2
Maximum Frame-Average Light Level : 130 cd/m2

Audio #1
ID : 2
Format : MLP FBA 16-ch
Format/Info : Meridian Lossless Packing FBA with 16-channel presentation
Commercial name : Dolby TrueHD with Dolby Atmos
Codec ID : A_TRUEHD
Duration : 2 h 12 min
Bit rate mode : Variable
Bit rate : 3 164 kb/s
Maximum bit rate : 6 012 kb/s
Channel(s) : 8 channels
Channel layout : L R C LFE Ls Rs Lb Rb
Sampling rate : 48.0 kHz
Frame rate : 1 200.000 FPS (40 SPF)
Compression mode : Lossless
Stream size : 2.93 GiB (4%)
Title : TrueHD Atmos 7.1
Language : English
Default : Yes
Forced : No
Number of dynamic objects : 11
Bed channel count : 1 channel
Bed channel configuration : LFE

Audio #2
ID : 3
Format : AC-3
Format/Info : Audio Coding 3
Commercial name : Dolby Digital
Codec ID : A_AC3
Duration : 2 h 12 min
Bit rate mode : Constant
Bit rate : 448 kb/s
Channel(s) : 6 channels
Channel layout : L R C LFE Ls Rs
Sampling rate : 48.0 kHz
Frame rate : 31.250 FPS (1536 SPF)
Compression mode : Lossy
Stream size : 425 MiB (1%)
Title : AC3 5.1-EX
Language : English
Service kind : Complete Main
Default : No
Forced : No

Audio #3
ID : 4
Format : E-AC-3
Format/Info : Enhanced AC-3
Commercial name : Dolby Digital Plus
Codec ID : A_EAC3
Duration : 2 h 12 min
Bit rate mode : Constant
Bit rate : 192 kb/s
Channel(s) : 2 channels
Channel layout : L R
Sampling rate : 48.0 kHz
Frame rate : 31.250 FPS (1536 SPF)
Compression mode : Lossy
Stream size : 182 MiB (0%)
Title : Commentary by James McTeigue/Natalie Portman/Hugo Weaving
Language : English
Service kind : Complete Main
Default : No
Forced : No

Text #1
ID : 5
Format : PGS
Codec ID : S_HDMV/PGS
Codec ID/Info : Picture based subtitle format used on BDs/HD-DVDs
Duration : 2 h 3 min
Bit rate : 43.6 kb/s
Count of elements : 3640
Stream size : 38.7 MiB (0%)
Title : English (SDH)
Language : English
Default : No
Forced : No

Text #2
ID : 6
Format : PGS
Codec ID : S_HDMV/PGS
Codec ID/Info : Picture based subtitle format used on BDs/HD-DVDs
Duration : 2 h 5 min
Bit rate : 23.3 kb/s
Count of elements : 3430
Stream size : 20.9 MiB (0%)
Title : Arabic
Language : Arabic
Default : No
Forced : No

Text #3
ID : 7
Format : PGS
Codec ID : S_HDMV/PGS
Codec ID/Info : Picture based subtitle format used on BDs/HD-DVDs
Duration : 2 h 11 min
Bit rate : 30.4 kb/s
Count of elements : 3436
Stream size : 28.7 MiB (0%)
Title : Bulgarian
Language : Bulgarian
Default : No
Forced : No

Text #4
ID : 8
Format : PGS
Codec ID : S_HDMV/PGS
Codec ID/Info : Picture based subtitle format used on BDs/HD-DVDs
Duration : 2 h 11 min
Bit rate : 29.9 kb/s
Count of elements : 3416
Stream size : 28.1 MiB (0%)
Title : Chinese (Cantonese)
Language : Chinese
Default : No
Forced : No

Text #5
ID : 9
Format : PGS
Codec ID : S_HDMV/PGS
Codec ID/Info : Picture based subtitle format used on BDs/HD-DVDs
Duration : 2 h 11 min
Bit rate : 30.1 kb/s
Count of elements : 3436
Stream size : 28.3 MiB (0%)
Title : Chinese (Mandarin Traditional)
Language : Chinese
Default : No
Forced : No

Text #6
ID : 10
Format : PGS
Codec ID : S_HDMV/PGS
Codec ID/Info : Picture based subtitle format used on BDs/HD-DVDs
Duration : 2 h 11 min
Bit rate : 28.0 kb/s
Count of elements : 3422
Stream size : 26.4 MiB (0%)
Title : Croatian
Language : Croatian
Default : No
Forced : No

Text #7
ID : 11
Format : PGS
Codec ID : S_HDMV/PGS
Codec ID/Info : Picture based subtitle format used on BDs/HD-DVDs
Duration : 2 h 11 min
Bit rate : 34.1 kb/s
Count of elements : 3428
Stream size : 32.1 MiB (0%)
Title : Czech
Language : Czech
Default : No
Forced : No

Text #8
ID : 12
Format : PGS
Codec ID : S_HDMV/PGS
Codec ID/Info : Picture based subtitle format used on BDs/HD-DVDs
Duration : 2 h 11 min
Bit rate : 29.9 kb/s
Count of elements : 2310
Stream size : 28.1 MiB (0%)
Title : Danish
Language : Danish
Default : No
Forced : No

Text #9
ID : 13
Format : PGS
Codec ID : S_HDMV/PGS
Codec ID/Info : Picture based subtitle format used on BDs/HD-DVDs
Duration : 2 h 11 min
Bit rate : 31.6 kb/s
Count of elements : 2988
Stream size : 29.7 MiB (0%)
Title : Dutch
Language : Dutch
Default : No
Forced : No

Text #10
ID : 14
Format : PGS
Codec ID : S_HDMV/PGS
Codec ID/Info : Picture based subtitle format used on BDs/HD-DVDs
Duration : 2 h 11 min
Bit rate : 30.1 kb/s
Count of elements : 2120
Stream size : 28.4 MiB (0%)
Title : Estonian
Language : Estonian
Default : No
Forced : No

Text #11
ID : 15
Format : PGS
Codec ID : S_HDMV/PGS
Codec ID/Info : Picture based subtitle format used on BDs/HD-DVDs
Duration : 2 h 11 min
Bit rate : 31.6 kb/s
Count of elements : 2560
Stream size : 29.8 MiB (0%)
Title : Finnish
Language : Finnish
Default : No
Forced : No

Text #12
ID : 16
Format : PGS
Codec ID : S_HDMV/PGS
Codec ID/Info : Picture based subtitle format used on BDs/HD-DVDs
Duration : 2 h 11 min
Bit rate : 30.9 kb/s
Count of elements : 3664
Stream size : 29.1 MiB (0%)
Title : French
Language : French
Default : No
Forced : No

Text #13
ID : 17
Format : PGS
Codec ID : S_HDMV/PGS
Codec ID/Info : Picture based subtitle format used on BDs/HD-DVDs
Duration : 2 h 11 min
Bit rate : 40.8 kb/s
Count of elements : 3528
Stream size : 38.5 MiB (0%)
Title : German
Language : German
Default : No
Forced : No

Text #14
ID : 18
Format : PGS
Codec ID : S_HDMV/PGS
Codec ID/Info : Picture based subtitle format used on BDs/HD-DVDs
Duration : 2 h 5 min
Bit rate : 47.0 kb/s
Count of elements : 3790
Stream size : 42.2 MiB (0%)
Title : German (SDH)
Language : German
Default : No
Forced : No

Text #15
ID : 19
Format : PGS
Codec ID : S_HDMV/PGS
Codec ID/Info : Picture based subtitle format used on BDs/HD-DVDs
Duration : 2 h 11 min
Bit rate : 36.6 kb/s
Count of elements : 3490
Stream size : 34.5 MiB (0%)
Title : Greek
Language : Greek
Default : No
Forced : No

Text #16
ID : 20
Format : PGS
Codec ID : S_HDMV/PGS
Codec ID/Info : Picture based subtitle format used on BDs/HD-DVDs
Duration : 2 h 11 min
Bit rate : 28.0 kb/s
Count of elements : 3422
Stream size : 26.4 MiB (0%)
Title : Hebrew
Language : Hebrew
Default : No
Forced : No

Text #17
ID : 21
Format : PGS
Codec ID : S_HDMV/PGS
Codec ID/Info : Picture based subtitle format used on BDs/HD-DVDs
Duration : 2 h 11 min
Bit rate : 30.2 kb/s
Count of elements : 3222
Stream size : 28.5 MiB (0%)
Title : Hungarian
Language : Hungarian
Default : No
Forced : No

Text #18
ID : 22
Format : PGS
Codec ID : S_HDMV/PGS
Codec ID/Info : Picture based subtitle format used on BDs/HD-DVDs
Duration : 2 h 11 min
Bit rate : 33.6 kb/s
Count of elements : 3402
Stream size : 31.7 MiB (0%)
Title : Icelandic
Language : Icelandic
Default : No
Forced : No

Text #19
ID : 23
Format : PGS
Codec ID : S_HDMV/PGS
Codec ID/Info : Picture based subtitle format used on BDs/HD-DVDs
Duration : 2 h 11 min
Bit rate : 43.5 kb/s
Count of elements : 3400
Stream size : 41.1 MiB (0%)
Title : Indonesian
Language : Indonesian
Default : No
Forced : No

Text #20
ID : 24
Format : PGS
Codec ID : S_HDMV/PGS
Codec ID/Info : Picture based subtitle format used on BDs/HD-DVDs
Duration : 2 h 11 min
Bit rate : 38.5 kb/s
Count of elements : 3408
Stream size : 36.2 MiB (0%)
Title : Italian
Language : Italian
Default : No
Forced : No

Text #21
ID : 25
Format : PGS
Codec ID : S_HDMV/PGS
Codec ID/Info : Picture based subtitle format used on BDs/HD-DVDs
Duration : 2 h 11 min
Bit rate : 42.4 kb/s
Count of elements : 3670
Stream size : 39.9 MiB (0%)
Title : Italian (SDH)
Language : Italian
Default : No
Forced : No

Text #22
ID : 26
Format : PGS
Codec ID : S_HDMV/PGS
Codec ID/Info : Picture based subtitle format used on BDs/HD-DVDs
Duration : 2 h 3 min
Bit rate : 30.5 kb/s
Count of elements : 3464
Stream size : 27.0 MiB (0%)
Title : Japanese
Language : Japanese
Default : No
Forced : No

Text #23
ID : 27
Format : PGS
Codec ID : S_HDMV/PGS
Codec ID/Info : Picture based subtitle format used on BDs/HD-DVDs
Duration : 2 h 11 min
Bit rate : 24.2 kb/s
Count of elements : 3380
Stream size : 22.8 MiB (0%)
Title : Korean
Language : Korean
Default : No
Forced : No

Text #24
ID : 28
Format : PGS
Codec ID : S_HDMV/PGS
Codec ID/Info : Picture based subtitle format used on BDs/HD-DVDs
Duration : 2 h 11 min
Bit rate : 32.8 kb/s
Count of elements : 3394
Stream size : 31.0 MiB (0%)
Title : Latvian
Language : Latvian
Default : No
Forced : No

Text #25
ID : 29
Format : PGS
Codec ID : S_HDMV/PGS
Codec ID/Info : Picture based subtitle format used on BDs/HD-DVDs
Duration : 2 h 11 min
Bit rate : 37.7 kb/s
Count of elements : 3436
Stream size : 35.6 MiB (0%)
Title : Lithuanian
Language : Lithuanian
Default : No
Forced : No

Text #26
ID : 30
Format : PGS
Codec ID : S_HDMV/PGS
Codec ID/Info : Picture based subtitle format used on BDs/HD-DVDs
Duration : 2 h 11 min
Bit rate : 36.7 kb/s
Count of elements : 2958
Stream size : 34.5 MiB (0%)
Title : Norwegian
Language : Norwegian
Default : No
Forced : No

Text #27
ID : 31
Format : PGS
Codec ID : S_HDMV/PGS
Codec ID/Info : Picture based subtitle format used on BDs/HD-DVDs
Duration : 2 h 11 min
Bit rate : 34.3 kb/s
Count of elements : 3394
Stream size : 32.3 MiB (0%)
Title : Polish
Language : Polish
Default : No
Forced : No

Text #28
ID : 32
Format : PGS
Codec ID : S_HDMV/PGS
Codec ID/Info : Picture based subtitle format used on BDs/HD-DVDs
Duration : 2 h 11 min
Bit rate : 34.5 kb/s
Count of elements : 3394
Stream size : 32.6 MiB (0%)
Title : Portuguese (Brazilian)
Language : Portuguese
Default : No
Forced : No

Text #29
ID : 33
Format : PGS
Codec ID : S_HDMV/PGS
Codec ID/Info : Picture based subtitle format used on BDs/HD-DVDs
Duration : 2 h 11 min
Bit rate : 40.2 kb/s
Count of elements : 3570
Stream size : 37.9 MiB (0%)
Title : Portuguese (Iberian)
Language : Portuguese
Default : No
Forced : No

Text #30
ID : 34
Format : PGS
Codec ID : S_HDMV/PGS
Codec ID/Info : Picture based subtitle format used on BDs/HD-DVDs
Duration : 2 h 11 min
Bit rate : 35.0 kb/s
Count of elements : 3012
Stream size : 32.9 MiB (0%)
Title : Romanian
Language : Romanian
Default : No
Forced : No

Text #31
ID : 35
Format : PGS
Codec ID : S_HDMV/PGS
Codec ID/Info : Picture based subtitle format used on BDs/HD-DVDs
Duration : 2 h 11 min
Bit rate : 38.8 kb/s
Count of elements : 3442
Stream size : 36.6 MiB (0%)
Title : Russian
Language : Russian
Default : No
Forced : No

Text #32
ID : 36
Format : PGS
Codec ID : S_HDMV/PGS
Codec ID/Info : Picture based subtitle format used on BDs/HD-DVDs
Duration : 2 h 11 min
Bit rate : 33.9 kb/s
Count of elements : 3456
Stream size : 31.9 MiB (0%)
Title : Serbian
Language : Serbian
Default : No
Forced : No

Text #33
ID : 37
Format : PGS
Codec ID : S_HDMV/PGS
Codec ID/Info : Picture based subtitle format used on BDs/HD-DVDs
Duration : 2 h 11 min
Bit rate : 26.4 kb/s
Count of elements : 3256
Stream size : 24.9 MiB (0%)
Title : Slovenian
Language : Slovenian
Default : No
Forced : No

Text #34
ID : 38
Format : PGS
Codec ID : S_HDMV/PGS
Codec ID/Info : Picture based subtitle format used on BDs/HD-DVDs
Duration : 2 h 11 min
Bit rate : 40.3 kb/s
Count of elements : 3510
Stream size : 37.9 MiB (0%)
Title : Spanish (Castilian)
Language : Spanish
Default : No
Forced : No

Text #35
ID : 39
Format : PGS
Codec ID : S_HDMV/PGS
Codec ID/Info : Picture based subtitle format used on BDs/HD-DVDs
Duration : 2 h 11 min
Bit rate : 36.4 kb/s
Count of elements : 3426
Stream size : 34.2 MiB (0%)
Title : Spanish (Latin American)
Language : Spanish
Default : No
Forced : No

Text #36
ID : 40
Format : PGS
Codec ID : S_HDMV/PGS
Codec ID/Info : Picture based subtitle format used on BDs/HD-DVDs
Duration : 2 h 11 min
Bit rate : 32.6 kb/s
Count of elements : 2524
Stream size : 30.7 MiB (0%)
Title : Swedish
Language : Swedish
Default : No
Forced : No

Text #37
ID : 41
Format : PGS
Codec ID : S_HDMV/PGS
Codec ID/Info : Picture based subtitle format used on BDs/HD-DVDs
Duration : 2 h 11 min
Bit rate : 37.1 kb/s
Count of elements : 3418
Stream size : 34.8 MiB (0%)
Title : Thai
Language : Thai
Default : No
Forced : No

Text #38
ID : 42
Format : PGS
Codec ID : S_HDMV/PGS
Codec ID/Info : Picture based subtitle format used on BDs/HD-DVDs
Duration : 2 h 11 min
Bit rate : 40.4 kb/s
Count of elements : 3500
Stream size : 38.1 MiB (0%)
Title : Turkish
Language : Turkish
Default : No
Forced : No

Text #39
ID : 43
Format : PGS
Codec ID : S_HDMV/PGS
Codec ID/Info : Picture based subtitle format used on BDs/HD-DVDs
Duration : 2 h 11 min
Bit rate : 36.6 kb/s
Count of elements : 3412
Stream size : 34.5 MiB (0%)
Title : Ukrainian
Language : Ukrainian
Default : No
Forced : No

Text #40
ID : 44
Format : PGS
Codec ID : S_HDMV/PGS
Codec ID/Info : Picture based subtitle format used on BDs/HD-DVDs
Duration : 2 h 12 min
Bit rate : 48.9 kb/s
Count of elements : 3984
Stream size : 46.3 MiB (0%)
Title : English (Commentary)
Language : English
Default : No
Forced : No

Text #41
ID : 45
Format : PGS
Codec ID : S_HDMV/PGS
Codec ID/Info : Picture based subtitle format used on BDs/HD-DVDs
Duration : 2 h 12 min
Bit rate : 35.3 kb/s
Count of elements : 3834
Stream size : 33.4 MiB (0%)
Title : Chinese (Commentary)
Language : Chinese
Default : No
Forced : No

Text #42
ID : 46
Format : PGS
Codec ID : S_HDMV/PGS
Codec ID/Info : Picture based subtitle format used on BDs/HD-DVDs
Duration : 2 h 12 min
Bit rate : 39.9 kb/s
Count of elements : 3630
Stream size : 37.8 MiB (0%)
Title : Dutch (Commentary)
Language : Dutch
Default : No
Forced : No

Text #43
ID : 47
Format : PGS
Codec ID : S_HDMV/PGS
Codec ID/Info : Picture based subtitle format used on BDs/HD-DVDs
Duration : 2 h 12 min
Bit rate : 40.3 kb/s
Count of elements : 3966
Stream size : 38.2 MiB (0%)
Title : French (Commentary)
Language : French
Default : No
Forced : No

Text #44
ID : 48
Format : PGS
Codec ID : S_HDMV/PGS
Codec ID/Info : Picture based subtitle format used on BDs/HD-DVDs
Duration : 2 h 12 min
Bit rate : 48.2 kb/s
Count of elements : 3970
Stream size : 45.6 MiB (0%)
Title : German (Commentary)
Language : German
Default : No
Forced : No

Text #45
ID : 49
Format : PGS
Codec ID : S_HDMV/PGS
Codec ID/Info : Picture based subtitle format used on BDs/HD-DVDs
Duration : 2 h 12 min
Bit rate : 46.3 kb/s
Count of elements : 3844
Stream size : 43.9 MiB (0%)
Title : Italian (Commentary)
Language : Italian
Default : No
Forced : No

Text #46
ID : 50
Format : PGS
Codec ID : S_HDMV/PGS
Codec ID/Info : Picture based subtitle format used on BDs/HD-DVDs
Duration : 2 h 6 min
Bit rate : 38.7 kb/s
Count of elements : 3798
Stream size : 34.9 MiB (0%)
Title : Japanese (Commentary)
Language : Japanese
Default : No
Forced : No

Text #47
ID : 51
Format : PGS
Codec ID : S_HDMV/PGS
Codec ID/Info : Picture based subtitle format used on BDs/HD-DVDs
Duration : 2 h 12 min
Bit rate : 29.6 kb/s
Count of elements : 3838
Stream size : 28.1 MiB (0%)
Title : Korean (Commentary)
Language : Korean
Default : No
Forced : No

Text #48
ID : 52
Format : PGS
Codec ID : S_HDMV/PGS
Codec ID/Info : Picture based subtitle format used on BDs/HD-DVDs
Duration : 2 h 12 min
Bit rate : 42.0 kb/s
Count of elements : 3844
Stream size : 39.8 MiB (0%)
Title : Portuguese (Commentary)
Language : Portuguese
Default : No
Forced : No

Text #49
ID : 53
Format : PGS
Codec ID : S_HDMV/PGS
Codec ID/Info : Picture based subtitle format used on BDs/HD-DVDs
Duration : 2 h 12 min
Bit rate : 44.6 kb/s
Count of elements : 3872
Stream size : 42.3 MiB (0%)
Title : Spanish (Commentary)
Language : Spanish
Default : No
Forced : No

Menu
00:00:00.000 : en:Remember, Remember
00:02:24.519 : en:Man In A Mask
00:09:08.089 : en:Rooftop Concert
00:11:00.618 : en:Lead On The Girl
00:16:27.069 : en:VTV
00:21:56.649 : en:Response Time
00:25:01.500 : en:Captive For A Year
00:30:09.891 : en:Symbolic Acts
00:35:37.427 : en:Prothero’s Past
00:40:37.393 : en:Afraid All The Time
00:43:14.217 : en:No Mercy For The Bishop
00:48:02.797 : en:Creedy’s Threat
00:49:40.936 : en:Mystery Woman
00:54:10.122 : en:Bedside Manners
00:56:39.605 : en:Man From Room V
01:00:31.378 : en:What If?
01:04:47.050 : en:Gotcha
01:09:41.260 : en:Process Her
01:12:07.573 : en:Valerie’s Autobiography
01:18:49.808 : en:Ready To Die
01:21:13.118 : en:God Is In The Rain
01:26:01.615 : en:Valerie’s Legacy
01:29:38.915 : en:Can You Believe This?
01:32:08.314 : en:Pathogen Path To Power
01:36:21.275 : en:A Man As Smart
01:39:28.546 : en:Perfect Pattern
01:44:17.585 : en:Revolution Eve Dance
01:48:50.441 : en:End Of The Tunnel
01:52:03.800 : en:Swift Justice
01:53:57.706 : en:V’s Turn
01:57:51.564 : en:Gift Of Love
01:59:35.293 : en:All Of Us
02:04:38.554 : en:End Credits

(He/Him) He's BvSRips. I dedicate myself to sharing files on this blog for free. But it is difficult to maintain the links online for a long time, they are denounced and deleted, reuploading costs more work, that is why a section for VIP users was created, where they can download all the files published 100% in MEGA, as premium, without spend more. I would greatly appreciate your collaboration so that this blog remains online for a longer time.

BUY VIP HERE

You may also like...

Leave a Reply

Your email address will not be published. Required fields are marked *