Whiskey Cavalier All Season | 720p & 1080p WEBRip x265-BvS

Following an emotional break-up, FBI agent Will Chase (codename: Whiskey Cavalier) is assigned to work with CIA operative Francesca ‘Frankie’ Trowbridge (codename: Fiery Tribune). Together they lead an inter-agency team of spies who periodically save the world, and each other, while navigating the rocky roads of friendship, romance and office politics.

Links: HOMEPAGE – TVGuide

Note: In English with English Selectable Subtitles 

DOWNLOAD

VIP (GOOGLE DRIVE)

This content is reserved for registered users. BUY A VIP MEMBERSHIP HERE and login to be able to see it.

FREE

  • SEASON 1: 720p x265-BvS (ONLY VIP)

NFO

WEBRip.x264-ION10

 

720p.x265-BvS

General
Unique ID : 291585260918630597174842026285537537688 (0xDB5D474E09BB42297DE68D232019AE98)
Complete name : Whiskey.Cavalier.S01E01.Pilot.720p.WEBRip.2CH.x265.HEVC.mkv
Format : Matroska
Format version : Version 4
File size : 215 MiB
Duration : 43 min 7 s
Overall bit rate : 696 kb/s
Movie name : Whiskey.Cavalier.S01E01.Pilot.720p.WEBRip.2CH.x265.HEVC-PSA [enthus1ast.com] Encoded date : UTC 2019-02-28 20:55:48
Writing application : mkvmerge v31.0.0 (‘Dolores In A Shoestand’) 64-bit
Writing library : libebml v1.3.6 + libmatroska v1.4.9

Video
ID : 1
Format : HEVC
Format/Info : High Efficiency Video Coding
Format profile : [email protected]@Main
Codec ID : V_MPEGH/ISO/HEVC
Duration : 43 min 7 s
Bit rate : 627 kb/s
Width : 1 280 pixels
Height : 720 pixels
Display aspect ratio : 16:9
Frame rate mode : Constant
Frame rate : 23.976 (24000/1001) FPS
Color space : YUV
Chroma subsampling : 4:2:0
Bit depth : 8 bits
Bits/(Pixel*Frame) : 0.028
Stream size : 193 MiB (90%)
Default : Yes
Forced : No

Audio
ID : 2
Format : AAC LC SBR
Format/Info : Advanced Audio Codec Low Complexity with Spectral Band Replication
Commercial name : HE-AAC
Format settings : Explicit
Codec ID : A_AAC-2
Duration : 43 min 7 s
Bit rate : 66.2 kb/s
Channel(s) : 2 channels
Channel layout : L R
Sampling rate : 48.0 kHz
Frame rate : 23.438 FPS (2048 SPF)
Compression mode : Lossy
Delay relative to video : 23 ms
Stream size : 20.6 MiB (10%)
Language : English
Default : Yes
Forced : No

Text
ID : 3
Format : UTF-8
Codec ID : S_TEXT/UTF8
Codec ID/Info : UTF-8 Plain Text
Duration : 42 min 57 s
Bit rate : 88 b/s
Count of elements : 1039
Stream size : 27.8 KiB (0%)
Language : English
Default : Yes
Forced : No

1080p.x265

 

Leave a Reply

Your email address will not be published. Required fields are marked *