Wayne All Season | 720p & 1080p WEBRip x265-BvS

wayne

Wayne, a 16 year-old Dirty Harry with a heart of gold, sets out on a dirt bike from Boston to Florida with his new friend Del to get back the shit-hot 79′ Trans-Am that was stolen from his father before he died.

Links: HOMEPAGE – IMDB

Note: In English with English Selectable Subtitles 

DOWNLOAD

VIP (GOOGLE DRIVE)

This content is reserved for registered users. BUY A VIP MEMBERSHIP HERE and login to be able to see it.

FREE

  • SEASON 1: 720p x265-BvS (ONLY VIP)

NFO

WEBRip.x264-ION10

 

720p.x265-BvS

General
Unique ID : 338717850939390928567701186844599960073 (0xFED2AF681AE2823CEFFA363BDA0AC209)
Complete name : Wayne.S01E01.CHAPTER.ONE.GET.SOME.THEN.720p.10bit.WEBRip.2CH.x265.HEVC.mkv
Format : Matroska
Format version : Version 4
File size : 205 MiB
Duration : 35 min 11 s
Overall bit rate : 814 kb/s
Encoded date : UTC 2019-02-02 14:14:45
Writing application : mkvmerge v30.1.0 (‘Forever And More’) 64-bit
Writing library : libebml v1.3.6 + libmatroska v1.4.9

Video
ID : 1
Format : HEVC
Format/Info : High Efficiency Video Coding
Format profile : Main [email protected]@Main
Codec ID : V_MPEGH/ISO/HEVC
Duration : 35 min 11 s
Bit rate : 749 kb/s
Width : 1 280 pixels
Height : 640 pixels
Display aspect ratio : 2.000
Frame rate mode : Constant
Frame rate : 23.976 (24000/1001) FPS
Color space : YUV
Chroma subsampling : 4:2:0
Bit depth : 10 bits
Bits/(Pixel*Frame) : 0.038
Stream size : 188 MiB (92%)
Default : Yes
Forced : No
Color range : Limited
Color primaries : BT.709
Transfer characteristics : BT.709
Matrix coefficients : BT.709

Audio
ID : 2
Format : AAC LC SBR
Format/Info : Advanced Audio Codec Low Complexity with Spectral Band Replication
Commercial name : HE-AAC
Format settings : Explicit
Codec ID : A_AAC-2
Duration : 35 min 11 s
Bit rate : 61.7 kb/s
Channel(s) : 2 channels
Channel layout : L R
Sampling rate : 48.0 kHz
Frame rate : 23.438 FPS (2048 SPF)
Compression mode : Lossy
Delay relative to video : 23 ms
Stream size : 15.5 MiB (8%)
Language : English
Default : Yes
Forced : No

Text #1
ID : 3
Format : UTF-8
Codec ID : S_TEXT/UTF8
Codec ID/Info : UTF-8 Plain Text
Duration : 34 min 51 s
Bit rate : 65 b/s
Count of elements : 629
Stream size : 16.8 KiB (0%)
Language : English
Default : Yes
Forced : No

Text #2
ID : 4
Format : UTF-8
Codec ID : S_TEXT/UTF8
Codec ID/Info : UTF-8 Plain Text
Duration : 35 min 6 s
Bit rate : 53 b/s
Count of elements : 526
Stream size : 13.8 KiB (0%)
Language : German
Default : No
Forced : No

Text #3
ID : 5
Format : UTF-8
Codec ID : S_TEXT/UTF8
Codec ID/Info : UTF-8 Plain Text
Duration : 34 min 58 s
Bit rate : 51 b/s
Count of elements : 505
Stream size : 13.2 KiB (0%)
Language : Spanish
Default : No
Forced : No

Text #4
ID : 6
Format : UTF-8
Codec ID : S_TEXT/UTF8
Codec ID/Info : UTF-8 Plain Text
Duration : 35 min 6 s
Bit rate : 52 b/s
Count of elements : 531
Stream size : 13.6 KiB (0%)
Language : Spanish
Default : No
Forced : No

Text #5
ID : 7
Format : UTF-8
Codec ID : S_TEXT/UTF8
Codec ID/Info : UTF-8 Plain Text
Duration : 35 min 6 s
Bit rate : 53 b/s
Count of elements : 526
Stream size : 13.8 KiB (0%)
Language : French
Default : No
Forced : No

Text #6
ID : 8
Format : UTF-8
Codec ID : S_TEXT/UTF8
Codec ID/Info : UTF-8 Plain Text
Duration : 35 min 7 s
Bit rate : 130 b/s
Count of elements : 532
Stream size : 33.6 KiB (0%)
Language : Hindi
Default : No
Forced : No

Text #7
ID : 9
Format : UTF-8
Codec ID : S_TEXT/UTF8
Codec ID/Info : UTF-8 Plain Text
Duration : 35 min 6 s
Bit rate : 54 b/s
Count of elements : 524
Stream size : 14.1 KiB (0%)
Language : Italian
Default : No
Forced : No

Text #8
ID : 10
Format : UTF-8
Codec ID : S_TEXT/UTF8
Codec ID/Info : UTF-8 Plain Text
Duration : 35 min 6 s
Bit rate : 41 b/s
Count of elements : 497
Stream size : 10.6 KiB (0%)
Language : Japanese
Default : No
Forced : No

Text #9
ID : 11
Format : UTF-8
Codec ID : S_TEXT/UTF8
Codec ID/Info : UTF-8 Plain Text
Duration : 35 min 6 s
Bit rate : 55 b/s
Count of elements : 531
Stream size : 14.4 KiB (0%)
Language : Korean
Default : No
Forced : No

Text #10
ID : 12
Format : UTF-8
Codec ID : S_TEXT/UTF8
Codec ID/Info : UTF-8 Plain Text
Duration : 35 min 6 s
Bit rate : 49 b/s
Count of elements : 527
Stream size : 12.8 KiB (0%)
Language : Portuguese
Default : No
Forced : No

 

1080p.x265

 

1 Response

  1. user107 says:

    whats the password for the link ? i am already logged in. when i click on the google drive. it ask for a password for the filecrypt .

Leave a Reply

Your email address will not be published. Required fields are marked *