The Flight Attendant All Season | 720p & 1080p AMZN WEBRip x265-BvS

Sexy, sassy and shocking; UnREAL peels back the shimmering veneer of the reality dating show to reveal how unreal they really are. Every character is manipulative. Every character is self-centred. Every character will stop at nothing to get what they want. Every character is unmissable. Unreal is unreal television and essential viewing. Set behind-the-scenes of faux dating show “Everlasting” proves that beauty is indeed only skin deep as a bevy of eligible beauties vie to win the heart of the requisite hunk, or via versa in Season 3 and find everlasting love. The girls think they all have a chance, but in reality, the producers know exactly who they want to be picked and will stop at nothing to ensure they get their final proposal.

Links: HOMEPAGE – TV.com

Note: In English with English Selectable Subtitles

DOWNLOAD

VIP (GOOGLE DRIVE)

This content is reserved for registered users. Sign up here o login to be able to see it. Buy your VIP membership

FREE

  • SEASON 1: 720p x265 (ONLY VIP)
  • SEASON 2: 720p x265 (ONLY VIP)
  • SEASON 3: 720p x265 (ONLY VIP)
  • SEASON 4: 720p x265 (ONLY VIP)

NFO

WEBRip.x264-ION10

 

720p.x265-BvS

General
Unique ID : 246939492467336869667547811812077047978 (0xB9C6D0F9006979A7AF150AF22D4990AA)
Complete name : UnREAL.S02E01.War.720p.WEB-DL.2CH.x265.HEVC.mkv
Format : Matroska
Format version : Version 4
File size : 192 MiB
Duration : 42 min 23 s
Overall bit rate : 635 kb/s
Movie name : PSArips.com | UnREAL.S02E01.War.720p.WEB-DL.2CH.x265.HEVC-PSA
Encoded date : UTC 2016-06-08 19:15:49
Writing application : mkvmerge v9.2.0 (‘Photograph’) 64bit
Writing library : libebml v1.3.3 + libmatroska v1.4.4

Video
ID : 1
Format : HEVC
Format/Info : High Efficiency Video Coding
Format profile : [email protected]@Main
Codec ID : V_MPEGH/ISO/HEVC
Duration : 42 min 23 s
Bit rate : 566 kb/s
Width : 1 280 pixels
Height : 720 pixels
Display aspect ratio : 16:9
Frame rate mode : Constant
Frame rate : 23.976 (24000/1001) FPS
Color space : YUV
Chroma subsampling : 4:2:0
Bit depth : 8 bits
Bits/(Pixel*Frame) : 0.026
Stream size : 172 MiB (89%)
Default : Yes
Forced : No
Color range : Limited
Color primaries : BT.709
Transfer characteristics : BT.709
Matrix coefficients : BT.709

Audio
ID : 2
Format : AAC LC SBR
Format/Info : Advanced Audio Codec Low Complexity with Spectral Band Replication
Commercial name : HE-AAC
Format settings : NBC
Codec ID : A_AAC-5
Duration : 42 min 23 s
Bit rate : 66.2 kb/s
Channel(s) : 2 channels
Channel layout : L R
Sampling rate : 48.0 kHz
Frame rate : 23.438 FPS (2048 SPF)
Compression mode : Lossy
Stream size : 20.2 MiB (11%)
Title : Stereo
Language : English
Default : Yes
Forced : No

Text
ID : 3
Format : UTF-8
Codec ID : S_TEXT/UTF8
Codec ID/Info : UTF-8 Plain Text
Duration : 41 min 46 s
Bit rate : 118 b/s
Count of elements : 1124
Stream size : 36.2 KiB (0%)
Default : Yes
Forced : No

 

1080p.x265-BvS

 

(He/Him) He's BvSRips. I dedicate myself to sharing files on this blog for free. But it is difficult to maintain the links online for a long time, they are denounced and deleted, reuploading costs more work, that is why a section for VIP users was created, where they can download all the files published 100% in MEGA, as premium, without spend more. I would greatly appreciate your collaboration so that this blog remains online for a longer time.

BUY VIP HERE

Leave a Reply

Your email address will not be published. Required fields are marked *