Three Busy Debras All Season | 720p & 1080p HULU WEBRip x265-BvS

Three Busy Debras follows the surreal day-to-day lives of three deranged housewives, all named Debra, in their affluent suburban town of Lemoncurd, Connecticut.

Links: HOMEPAGE – TV.com

Note: In English with English Selectable Subtitles

DOWNLOAD

VIP (GOOGLE DRIVE)

This content is reserved for registered users. BUY A VIP MEMBERSHIP HERE and login to be able to see it.

FREE

  • SEASON 1: 1080p x264 (ONLY VIP)

NFO

1080p.x264

General
Unique ID : 13911386392561192337531625255241155796 (0xA773C4DCCDC9EF99A1FC6DC3FEA84D4)
Complete name : Three.Busy.Debras.S01E01.1080p.HULU.WEB-DL.AAC2.0.H.264.mkv
Format : Matroska
Format version : Version 4
File size : 474 MiB
Duration : 12 min 13 s
Overall bit rate : 5 420 kb/s
Encoded date : UTC 2020-05-20 08:03:50
Writing application : mkvmerge v46.0.0 (‘No Deeper Escape’) 64-bit
Writing library : libebml v1.3.10 + libmatroska v1.5.2

Video
ID : 1
Format : AVC
Format/Info : Advanced Video Codec
Format profile : [email protected]
Format settings : CABAC / 4 Ref Frames
Format settings, CABAC : Yes
Format settings, Reference frames : 4 frames
Codec ID : V_MPEG4/ISO/AVC
Duration : 12 min 13 s
Bit rate : 5 355 kb/s
Width : 1 920 pixels
Height : 1 080 pixels
Display aspect ratio : 16:9
Frame rate mode : Constant
Frame rate : 29.970 (30000/1001) FPS
Color space : YUV
Chroma subsampling : 4:2:0
Bit depth : 8 bits
Scan type : Progressive
Bits/(Pixel*Frame) : 0.086
Stream size : 468 MiB (99%)
Default : Yes
Forced : No

Audio
ID : 2
Format : AAC LC SBR
Format/Info : Advanced Audio Codec Low Complexity with Spectral Band Replication
Commercial name : HE-AAC
Format settings : Explicit
Codec ID : A_AAC-2
Duration : 12 min 13 s
Bit rate : 64.0 kb/s
Channel(s) : 2 channels
Channel layout : L R
Sampling rate : 48.0 kHz
Frame rate : 23.438 FPS (2048 SPF)
Compression mode : Lossy
Stream size : 5.60 MiB (1%)
Language : English
Default : Yes
Forced : No

Text
ID : 3
Format : UTF-8
Codec ID : S_TEXT/UTF8
Codec ID/Info : UTF-8 Plain Text
Duration : 10 min 56 s
Bit rate : 68 b/s
Count of elements : 222
Stream size : 5.46 KiB (0%)
Language : English
Default : No
Forced : No

 

Leave a Reply

Your email address will not be published. Required fields are marked *