The Spectacular Spider-Man All Season | 720p & 1080p WEBRip x265-BvS

The 10th television series about Spider-Man picks up the original web-slinger’s mythology at the beginning of his hero’s journey, as a not so typical 16-year-old entering his junior year of high school. Having spent the summer engaging common criminals with his new-found powers, Peter Parker must conceal his secret identity and battle super-villains in the real world.

Links: HOMEPAGE – IMDB

Note: In English with English Selectable Subtitles 

DOWNLOAD

VIP (GOOGLE DRIVE)

This content is reserved for registered users. BUY A VIP MEMBERSHIP HERE and login to be able to see it.

FREE

  • SEASON 1: 720p x264
  • SEASON 2: 720p x264

NFO

720p.x264

General
Unique ID : 230577498085871586161858118218421620842 (0xAD779C5DD15FD328A3EF10374F73D06A)
Complete name : The.Spectacular.Spider-Man.S01E01.Survival.of.the.Fittest.720p.BluRay.x264-Pahe.in.mkv
Format : Matroska
Format version : Version 4
File size : 150 MiB
Duration : 23 min 12 s
Overall bit rate : 905 kb/s
Movie name : Spectacular Spider-Man – Season 1 – Disc 1
Encoded date : UTC 2017-07-21 13:11:02
Writing application : mkvmerge v9.6.0 (‘Slave To Your Mind’) 64bit
Writing library : libebml v1.3.4 + libmatroska v1.4.5
Cover : Yes
Attachments : cover.jpg

Video
ID : 1
Format : AVC
Format/Info : Advanced Video Codec
Format profile : [email protected]
Format settings : CABAC / 5 Ref Frames
Format settings, CABAC : Yes
Format settings, Reference frames : 5 frames
Codec ID : V_MPEG4/ISO/AVC
Duration : 23 min 12 s
Bit rate : 839 kb/s
Width : 1 280 pixels
Height : 720 pixels
Display aspect ratio : 16:9
Frame rate mode : Constant
Frame rate : 23.976 (24000/1001) FPS
Color space : YUV
Chroma subsampling : 4:2:0
Bit depth : 8 bits
Scan type : Progressive
Bits/(Pixel*Frame) : 0.038
Stream size : 139 MiB (93%)
Title : https://pahe.in
Writing library : x264 core 148 r2721 72d53ab
Encoding settings : cabac=1 / ref=5 / deblock=1:-2:-2 / analyse=0x3:0x133 / me=umh / subme=9 / psy=1 / psy_rd=1.00:0.15 / mixed_ref=1 / me_range=24 / chroma_me=1 / trellis=2 / 8x8dct=1 / cqm=0 / deadzone=21,11 / fast_pskip=1 / chroma_qp_offset=-3 / threads=22 / lookahead_threads=1 / sliced_threads=0 / nr=0 / decimate=1 / interlaced=0 / bluray_compat=0 / constrained_intra=0 / bframes=3 / b_pyramid=2 / b_adapt=2 / b_bias=0 / direct=3 / weightb=1 / open_gop=0 / weightp=2 / keyint=250 / keyint_min=23 / scenecut=40 / intra_refresh=0 / rc_lookahead=60 / rc=crf / mbtree=1 / crf=24.3 / qcomp=0.60 / qpmin=0 / qpmax=69 / qpstep=4 / vbv_maxrate=19000 / vbv_bufsize=17500 / crf_max=0.0 / nal_hrd=none / filler=0 / ip_ratio=1.40 / aq=1:0.80
Default : Yes
Forced : No

Audio
ID : 2
Format : AAC LC SBR
Format/Info : Advanced Audio Codec Low Complexity with Spectral Band Replication
Commercial name : HE-AAC
Format settings : Explicit
Codec ID : A_AAC-2
Duration : 23 min 12 s
Bit rate : 56.3 kb/s
Channel(s) : 2 channels
Channel layout : L R
Sampling rate : 48.0 kHz
Frame rate : 23.438 FPS (2048 SPF)
Compression mode : Lossy
Delay relative to video : 31 ms
Stream size : 9.34 MiB (6%)
Title : Pahe.in mini audio
Language : English
Default : No
Forced : No

Text
ID : 3
Format : VobSub
Muxing mode : zlib
Codec ID : S_VOBSUB
Codec ID/Info : Picture based subtitle format used on DVDs
Duration : 22 min 13 s
Bit rate : 7 437 b/s
Count of elements : 330
Stream size : 1.18 MiB (1%)
Language : English
Default : No
Forced : No

Menu
00:00:00.000 : :Chapter 1
00:02:58.220 : :Chapter 2
00:10:23.915 : :Chapter 3
00:16:52.887 : :Chapter 4
00:22:39.400 : :Chapter 5

Leave a Reply

Your email address will not be published. Required fields are marked *