Teenage Mutant Ninja Turtles (2003) All Season | 720p & 1080p WEBRip x265-BvS

This version of Teenage Mutant Ninja Turtles draws more references and plotlines from the original comics than the original television series did. Four turtles are contaminated with “ooze”, a radioactive substance that causes four turtles to change into humanoids. Their Master Splinter, a rat whom also came in contact with the ooze, teaches them the art of ninjitusu. Leonardo, Raphael, Donatello, and Michelangelo are Splinter’s disciples who are now ready to take on forces that oppose them, including the Shredder. The Shredder is the Turtles’ nemesis, as he killed Splinter’s Master Yoshi. The Turtles become envolved in a complex trail of events to uncover just who or what the Shredder really is.

Links: HOMEPAGE – TVDB

Note: In English with N.A Selectable Subtitles 

DOWNLOAD

VIP (GOOGLE DRIVE)

This content is reserved for registered users. BUY A VIP MEMBERSHIP HERE and login to be able to see it.

FREE

  • SEASON 1: 720p x264 (ONLY VIP)
  • SEASON 2: 720p x264 (ONLY VIP)
  • SEASON 3: 720p x264 (ONLY VIP)
  • SEASON 4: 720p x264 (ONLY VIP)
  • SEASON 5: 720p x264 (ONLY VIP)
  • SEASON 6: 720p x264 (ONLY VIP)
  • SEASON 7: 720p x264 (ONLY VIP)

NFO

WEBRip.x264-ION10

 

720p.x265-BvS

General
Unique ID : 228581180656568027730532534298995046299 (0xABF722516D7A38CB87F61D402057B79B)
Complete name : Teenage Mutant Ninja Turtles (2003) – s01e01 – Things Change[DVDRip 720p][SX].mkv
Format : Matroska
Format version : Version 4
File size : 411 MiB
Duration : 22 min 9 s
Overall bit rate : 2 590 kb/s
Encoded date : UTC 2018-03-30 14:27:00
Writing application : mkvmerge v9.7.1 (‘Pandemonium’) 64bit
Writing library : libebml v1.3.4 + libmatroska v1.4.5

Video
ID : 1
Format : AVC
Format/Info : Advanced Video Codec
Format profile : [email protected]
Format settings : CABAC / 4 Ref Frames
Format settings, CABAC : Yes
Format settings, Reference frames : 4 frames
Codec ID : V_MPEG4/ISO/AVC
Duration : 22 min 9 s
Bit rate : 2 397 kb/s
Width : 960 pixels
Height : 720 pixels
Display aspect ratio : 4:3
Frame rate mode : Constant
Frame rate : 29.970 (30000/1001) FPS
Color space : YUV
Chroma subsampling : 4:2:0
Bit depth : 8 bits
Scan type : Progressive
Bits/(Pixel*Frame) : 0.116
Stream size : 380 MiB (93%)
Writing library : x264 core 152 r2851 ba24899
Encoding settings : cabac=1 / ref=4 / deblock=1:0:0 / analyse=0x3:0x133 / me=umh / subme=10 / psy=1 / psy_rd=0.40:0.00 / mixed_ref=1 / me_range=24 / chroma_me=1 / trellis=2 / 8x8dct=1 / cqm=0 / deadzone=21,11 / fast_pskip=1 / chroma_qp_offset=-2 / threads=6 / lookahead_threads=1 / sliced_threads=0 / nr=0 / decimate=1 / interlaced=0 / bluray_compat=0 / constrained_intra=0 / bframes=4 / b_pyramid=2 / b_adapt=2 / b_bias=0 / direct=3 / weightb=1 / open_gop=0 / weightp=2 / keyint=300 / keyint_min=30 / scenecut=40 / intra_refresh=0 / rc_lookahead=60 / rc=crf / mbtree=1 / crf=17.0 / qcomp=0.60 / qpmin=0 / qpmax=69 / qpstep=4 / vbv_maxrate=25000 / vbv_bufsize=25000 / crf_max=0.0 / nal_hrd=none / filler=0 / ip_ratio=1.40 / aq=1:1.00
Default : Yes
Forced : No

Audio
ID : 2
Format : AC-3
Format/Info : Audio Coding 3
Commercial name : Dolby Digital
Codec ID : A_AC3
Duration : 22 min 9 s
Bit rate mode : Constant
Bit rate : 192 kb/s
Channel(s) : 2 channels
Channel layout : L R
Sampling rate : 48.0 kHz
Frame rate : 31.250 FPS (1536 SPF)
Compression mode : Lossy
Delay relative to video : 91 ms
Stream size : 30.4 MiB (7%)
Service kind : Complete Main
Default : Yes
Forced : No

 

1080p.x265

 

Leave a Reply

Your email address will not be published. Required fields are marked *