Search Party (2016) All Season | 720p & 1080p WEBRip x265-BvS

Search-Party

When former college acquaintance Chantal goes missing, five self-absorbed 20-somethings get entangled in the ominous mystery of her disappearance. Leading the search party is Dory, a lifelong doormat who works as a rich housewife’s assistant. Dory makes it her personal mission to find Chantal and she’s bringing her friends into the investigation with her. Self-diagnosed narcissist Elliott, who puts his ego aside to help Dory, is particularly good at detective work. Bubbly actress Portia excels at chatting up suspects for information because of her desperate need to be in the spotlight. Sheltered Drew has to grow a spine to help solve the mystery and save his deteriorating relationship with Dory. Dory’s ex-boyfriend Julian seeks the truth because of his background as a journalist.

Links: HOMEPAGE – IMDB

DOWNLOAD

VIP (GOOGLE DRIVE)

This content is reserved for registered users. Sign up here o login to be able to see it. Buy your VIP membership

FREE

NFO

WEBRip.x264-ION10

General
Complete name : Search.Party.S04E01.WEBRip.x264-ION10.mp4
Format : MPEG-4
Format profile : Base Media
Codec ID : isom (isom/iso2/avc1/mp41)
File size : 265 MiB
Duration : 27 min 36 s
Overall bit rate : 1 341 kb/s
Movie name : RARBG – Search.Party.S04E01.WEBRip.x264-ION10
Encoded date : UTC 2021-01-14 10:51:40
Tagged date : UTC 2021-01-14 10:51:40
Writing application : Lavf58.20.100
Comment : RARBG – Search.Party.S04E01.WEBRip.x264-ION10

Video
ID : 1
Format : AVC
Format/Info : Advanced Video Codec
Format profile : [email protected]
Format settings : CABAC / 5 Ref Frames
Format settings, CABAC : Yes
Format settings, Reference frames : 5 frames
Codec ID : avc1
Codec ID/Info : Advanced Video Coding
Duration : 27 min 36 s
Bit rate : 1 100 kb/s
Width : 720 pixels
Height : 400 pixels
Display aspect ratio : 16:9
Frame rate mode : Constant
Frame rate : 23.976 (24000/1001) FPS
Color space : YUV
Chroma subsampling : 4:2:0
Bit depth : 8 bits
Scan type : Progressive
Bits/(Pixel*Frame) : 0.159
Stream size : 213 MiB (81%)
Title : RARBG – Search.Party.S04E01.WEBRip.x264-ION10
Writing library : x264 core 152 r2851M ba24899
Encoding settings : cabac=1 / ref=5 / deblock=1:-1:-1 / analyse=0x3:0x113 / me=umh / subme=9 / psy=1 / psy_rd=1.00:0.15 / mixed_ref=1 / me_range=16 / chroma_me=1 / trellis=2 / 8x8dct=1 / cqm=0 / deadzone=21,11 / fast_pskip=1 / chroma_qp_offset=-3 / threads=12 / lookahead_threads=1 / sliced_threads=0 / nr=0 / decimate=1 / interlaced=0 / bluray_compat=0 / constrained_intra=0 / bframes=3 / b_pyramid=2 / b_adapt=2 / b_bias=0 / direct=3 / weightb=1 / open_gop=0 / weightp=2 / keyint=250 / keyint_min=23 / scenecut=40 / intra_refresh=0 / rc_lookahead=50 / rc=abr / mbtree=1 / bitrate=1100 / ratetol=1.0 / qcomp=0.60 / qpmin=0 / qpmax=69 / qpstep=4 / ip_ratio=1.40 / aq=1:1.00
Encoded date : UTC 2021-01-14 10:51:40
Tagged date : UTC 2021-01-14 10:51:40
Codec configuration box : avcC

Audio
ID : 2
Format : AAC LC
Format/Info : Advanced Audio Codec Low Complexity
Codec ID : mp4a-40-2
Duration : 27 min 36 s
Duration_LastFrame : -11 ms
Bit rate mode : Constant
Bit rate : 256 kb/s
Channel(s) : 2 channels
Channel layout : L R
Sampling rate : 48.0 kHz
Frame rate : 46.875 FPS (1024 SPF)
Compression mode : Lossy
Stream size : 50.5 MiB (19%)
Title : RARBG – Search.Party.S04E01.WEBRip.x264-ION10
Language : English
Default : Yes
Alternate group : 1
Encoded date : UTC 2021-01-14 10:51:40
Tagged date : UTC 2021-01-14 10:51:40

720p.x265-BvS

General
ID única : 98754054405987967601609217769357280905 (0x4A4B56CC0C18260A7E16E20988898689)
Nombre completo : Search.Party.2016.s03e01.720p.web.x265-BvS.mkv
Formato : Matroska
Formato de la versión : Version 4
Tamaño de archivo : 130 MiB
Duración : 22 min 10 s
Tasa de bits general : 823 kb/s
Fecha de codificación : UTC 2020-06-26 00:37:19
Aplicación de codifición : mkvmerge v41.0.0 (‘Smarra’) 32-bit
Librería de codificación : libebml v1.3.9 + libmatroska v1.5.2

Vídeo
ID : 1
Formato : HEVC
Formato/Info : High Efficiency Video Coding
Formato del perfil : [email protected]@Main
ID códec : V_MPEGH/ISO/HEVC
Duración : 22 min 10 s
Tasa de bits : 693 kb/s
Ancho : 1 280 píxeles
Alto : 720 píxeles
Relación de aspecto : 16:9
Modo velocidad fotogramas : Constante
Velocidad de fotogramas : 23,976 (24000/1001) FPS
Espacio de color : YUV
Submuestreo croma : 4:2:0
Profundidad bits : 8 bits
Bits/(píxel*fotograma) : 0.031
Tamaño de pista : 110 MiB (84%)
Librería de codificación : x265 1.4:[Windows][GCC 4.7.0][32 bit] Opciones de codificación : wpp / ctu=64 / tu-intra-depth=1 / tu-inter-depth=1 / me=1 / subme=2 / merange=57 / no-rect / no-amp / max-merge=2 / temporal-mvp / early-skip / no-fast-cbf / rdpenalty=0 / no-tskip / no-tskip-fast / strong-intra-smoothing / no-lossless / no-cu-lossless / no-constrained-intra / fast-intra / open-gop / interlace=0 / keyint=240 / min-keyint=24 / scenecut=40 / rc-lookahead=15 / bframes=4 / bframe-bias=0 / b-adapt=0 / ref=1 / weightp / no-weightb / aq-mode=0 / aq-strength=0.00 / cbqpoffs=0 / crqpoffs=0 / rd=2 / psy-rd=0.00 / psy-rdoq=0.00 / signhide / lft / sao / no-sao-non-deblock / b-pyramid / no-cutree / rc=crf / crf=25.0 / qcomp=0.60 / qpmin=0 / qpmax=51 / qpstep=4 / ipratio=1.40 / pbratio=1.30
Default : Sí
Forced : No
Rango de color : Limited
Colores primarios : BT.709
Características transferencia : BT.709
Coeficientes matriz : BT.709

Audio
ID : 2
Formato : AAC LC SBR
Formato/Info : Advanced Audio Codec Low Complexity with Spectral Band Replication
Nombre comercial : HE-AAC
Ajustes del formato : NBC
ID códec : A_AAC-5
Duración : 22 min 10 s
Tasa de bits : 128 kb/s
Canal(es) : 2 canales
ChannelLayout : L R
Velocidad de muestreo : 44,1 kHz
Velocidad de fotogramas : 21,533 FPS (2048 SPF)
Modo de compresión : Con pérdida
Retraso relativo al vídeo : -114 ms
Tamaño de pista : 20,3 MiB (16%)
Idioma : Inglés
Default : Sí
Forced : No

Texto
ID : 3
Formato : ASS
ID códec : S_TEXT/ASS
ID códec/Info : Advanced Sub Station Alpha
Duración : 4 s 500 ms
Tasa de bits : 149 b/s
ElementCount : 1
Modo de compresión : Sin pérdida
Tamaño de pista : 84,0 Bytes (0%)
Default : Sí
Forced : No

1080p.x265-BvS

 

Leave a Reply

Your email address will not be published. Required fields are marked *