Nick Cannon Presents: Wild 'N Out All Season | 720p & 1080p WEBRip x265-BvS

Nick Cannon and MTV are about to bring the street to the stage with Wild N’ Out- A half hour of unpredictable snaps and outrageous situations. Every episode, it’s Nick vs. A-List celebrities, as each leads their own team of improv comedians in an attempt to come out on top in a variety of ridiculous comic throw downs. Traditional improv games get a hip-hop twist as Nick and others rip the headlines-and reputations. It all culminates in a freestyle comedy battle to decide who wins fame and who goes home in shame. Don’t miss the illest improv on television. Nick Cannon Presents: Wild N’ Out.

Links: HOMEPAGE – IMDB

Note: In English with English Selectable Subtitles 

DOWNLOAD

VIP (GOOGLE DRIVE)

This content is reserved for registered users. BUY A VIP MEMBERSHIP HERE and login to be able to see it.

FREE

  • SEASON 1 – MIXED
  • SEASON 2 – MIXED
  • SEASON 3 – MIXED
  • SEASON 4 – MIXED
  • SEASON 5 – MIXED
  • SEASON 6 – MIXED
  • SEASON 7 – MIXED
  • SEASON 8 – MIXED
  • SEASON 9 – MIXED
  • SEASON 10 – MIXED
  • SEASON 11 – MIXED
  • SEASON 12 – MIXED
  • SEASON 13 – MIXED

NFO

WEBRip.x264

General
Complete name : Nick.Cannon.Presents.Wild’n.Out.S01E01.DVDRip.XviD-StAnMaN.avi
Format : AVI
Format/Info : Audio Video Interleave
File size : 181 MiB
Duration : 18 min 59 s
Overall bit rate : 1 334 kb/s
Writing library : MPlayer

Video
ID : 0
Format : MPEG-4 Visual
Format profile : [email protected]
Format settings, BVOP : No
Format settings, QPel : No
Format settings, GMC : No warppoints
Format settings, Matrix : Default (H.263)
Codec ID : XVID
Codec ID/Hint : XviD
Duration : 18 min 59 s
Bit rate : 1 193 kb/s
Width : 640 pixels
Height : 480 pixels
Display aspect ratio : 4:3
Frame rate : 29.970 (30000/1001) FPS
Color space : YUV
Chroma subsampling : 4:2:0
Bit depth : 8 bits
Scan type : Progressive
Compression mode : Lossy
Bits/(Pixel*Frame) : 0.130
Stream size : 162 MiB (89%)
Writing library : Magic0432

Audio
ID : 1
Format : MPEG Audio
Format version : Version 1
Format profile : Layer 3
Format settings : Joint stereo
Codec ID : 55
Codec ID/Hint : MP3
Duration : 18 min 59 s
Bit rate mode : Constant
Bit rate : 128 kb/s
Channel(s) : 2 channels
Sampling rate : 44.1 kHz
Compression mode : Lossy
Stream size : 17.4 MiB (10%)
Alignment : Aligned on interleaves
Interleave, duration : 26 ms (0.78 video frame)
Interleave, preload duration : 522 ms
Writing library : LAME3.97

Leave a Reply

Your email address will not be published. Required fields are marked *