Inside 2019 All Season | 720p & 1080p AMZN WEBRip x265-BvS

The day before she is due to leave her psychiatric clinic, a young woman is found dead. Ana’s heart has been torn out. Angèle, 29, handles the investigation. It is her first case and she will be working alone. A psychiatric clinic is not the kind of place to send an entire police team. It is not easy to question ‘mad’ people and insanity is disturbing and repellent. But not for Angèle. She feels comfortable ‘inside’ and finds the inmates engaging, lively and amusing – almost more than the ‘normal’ people she meets every day in the outside world. Yet the case is genuinely baffling. Who should she believe? How can she tell the truth from lies? What is the relationship between staff and patients? And the Santis, the psychiatrist couple running the place… Who are they really? Above all, who was Ana? Her diary was found, half-destroyed. Does it hold clues to the mystery?

Links: HOMEPAGE – iMDB

Note: In French with English Hardcore Subtitles

DOWNLOAD

VIP

This content is reserved for registered users. BUY A VIP MEMBERSHIP HERE and login to be able to see it.

FREE

NFO

WEBRip.x264-ION10

 

720p.x265-BvS

General
Unique ID : 234724063817621817187818252525862971750 (0xB09635D75D7C5FD710EFD66ABC4CE966)
Complete name : Inside.2019.S01e01.Episode.1.720p.amzn.webrip.x265-BvS.mkv
Format : Matroska
Format version : Version 4
File size : 204 MiB
Duration : 51 min 43 s
Overall bit rate : 551 kb/s
Movie name : BvSRips
Encoded date : UTC 2021-06-22 10:24:07
Writing application : mkvmerge v51.0.0 (‘I Wish’) 64-bit
Writing library : libebml v1.4.0 + libmatroska v1.6.2

Video
ID : 1
Format : HEVC
Format/Info : High Efficiency Video Coding
Format profile : [email protected]@Main
Codec ID : V_MPEGH/ISO/HEVC
Duration : 51 min 42 s
Bit rate : 421 kb/s
Width : 1 280 pixels
Height : 720 pixels
Display aspect ratio : 16:9
Frame rate mode : Constant
Frame rate : 25.000 FPS
Color space : YUV
Chroma subsampling : 4:2:0
Bit depth : 8 bits
Bits/(Pixel*Frame) : 0.018
Stream size : 156 MiB (76%)
Writing library : x265 3.2.1+1-b5c86a64bbbe:[Windows][GCC 9.2.0][64 bit] 8bit+10bit+12bit
Encoding settings : cpuid=1111039 / frame-threads=4 / numa-pools=16 / wpp / no-pmode / no-pme / psnr / no-ssim / log-level=2 / input-csp=1 / input-res=1280×720 / interlace=0 / total-frames=0 / level-idc=0 / high-tier=1 / uhd-bd=0 / ref=2 / no-allow-non-conformance / no-repeat-headers / annexb / no-aud / no-hrd / info / hash=0 / no-temporal-layers / open-gop / min-keyint=25 / keyint=250 / gop-lookahead=0 / bframes=4 / b-adapt=0 / b-pyramid / bframe-bias=0 / rc-lookahead=15 / lookahead-slices=4 / scenecut=40 / radl=0 / no-splice / no-intra-refresh / ctu=64 / min-cu-size=8 / no-rect / no-amp / max-tu-size=32 / tu-inter-depth=1 / tu-intra-depth=1 / limit-tu=0 / rdoq-level=0 / dynamic-rd=0.00 / no-ssim-rd / signhide / no-tskip / nr-intra=0 / nr-inter=0 / no-constrained-intra / strong-intra-smoothing / max-merge=2 / limit-refs=3 / no-limit-modes / me=1 / subme=2 / merange=57 / temporal-mvp / no-hme / weightp / no-weightb / no-analyze-src-pics / deblock=0:0 / sao / no-sao-non-deblock / rd=2 / selective-sao=4 / early-skip / rskip / fast-intra / no-tskip-fast / no-cu-lossless / no-b-intra / no-splitrd-skip / rdpenalty=0 / psy-rd=0.00 / psy-rdoq=0.00 / no-rd-refine / no-lossless / cbqpoffs=0 / crqpoffs=0 / rc=crf / crf=22.0 / qcomp=0.60 / qpstep=4 / stats-write=0 / stats-read=0 / ipratio=1.40 / pbratio=1.30 / aq-mode=2 / aq-strength=0.00 / cutree / zone-count=0 / no-strict-cbr / qg-size=32 / no-rc-grain / qpmax=69 / qpmin=0 / no-const-vbv / sar=1 / overscan=0 / videoformat=5 / range=0 / colorprim=1 / transfer=1 / colormatrix=1 / chromaloc=0 / display-window=0 / cll=0,0 / min-luma=0 / max-luma=255 / log2-max-poc-lsb=8 / vui-timing-info / vui-hrd-info / slices=1 / no-opt-qp-pps / no-opt-ref-list-length-pps / no-multi-pass-opt-rps / scenecut-bias=0.05 / no-opt-cu-delta-qp / no-aq-motion / no-hdr / no-hdr-opt / no-dhdr10-opt / no-idr-recovery-sei / analysis-reuse-level=5 / scale-factor=0 / refine-intra=0 / refine-inter=0 / refine-mv=1 / refine-ctu-distortion=0 / no-limit-sao / ctu-info=0 / no-lowpass-dct / refine-analysis-type=0 / copy-pic=1 / max-ausize-factor=1.0 / no-dynamic-refine / no-single-sei / no-hevc-aq / no-svt / no-field / qp-adaptation-range=1.00
Default : Yes
Forced : No
Color range : Limited
Color primaries : BT.709
Transfer characteristics : BT.709
Matrix coefficients : BT.709

Audio
ID : 2
Format : AAC LC SBR
Format/Info : Advanced Audio Codec Low Complexity with Spectral Band Replication
Commercial name : HE-AAC
Format settings : NBC
Codec ID : A_AAC-5
Duration : 51 min 43 s
Bit rate : 128 kb/s
Channel(s) : 2 channels
Channel layout : L R
Sampling rate : 44.1 kHz
Frame rate : 21.533 FPS (2048 SPF)
Compression mode : Lossy
Delay relative to video : -115 ms
Stream size : 47.3 MiB (23%)
Language : French
Default : Yes
Forced : No

Text
ID : 3
Format : ASS
Codec ID : S_TEXT/ASS
Codec ID/Info : Advanced Sub Station Alpha
Duration : 4 s 500 ms
Bit rate : 149 b/s
Count of elements : 1
Compression mode : Lossless
Stream size : 84.0 Bytes (0%)
Default : Yes
Forced : No

1080p.x265-BvS

 

Leave a Reply

Your email address will not be published. Required fields are marked *