Genius 2017 All Season | 720p & 1080p WEBRip x265-BvS

Genius 2017

The life stories of history’s greatest minds. From their days as young adults to their final years we see their discoveries, loves, relationships, causes, flaws and genius.

Links: HOMEPAGE – TVDB

Note: In English with English Selectable Subtitles

DOWNLOAD

VIP (GOOGLE DRIVE)

This content is reserved for registered users. BUY A VIP MEMBERSHIP HERE and login to be able to see it.

FREE

NFO

WEBRip.x264-ION10

 

720p.x265-BvS

General
Unique ID : 225050882936215437841419599708837711167 (0xA94F3933BDDA68CB8569CF032EC50D3F)
Complete name : Genius.S01E01.Einstein.Chapter.One.720p.WEB-DL.2CH.x265.HEVC.mkv
Format : Matroska
Format version : Version 4
File size : 359 MiB
Duration : 1 h 4 min
Overall bit rate : 774 kb/s
Movie name : PSArips.com | Genius.S01E01.Einstein.Chapter.One.720p.WEB-DL.2CH.x265.HEVC-PSA
Encoded date : UTC 2017-05-10 03:52:38
Writing application : mkvmerge v10.0.0 (‘To Drown In You’) 64bit
Writing library : libebml v1.3.4 + libmatroska v1.4.5

Video
ID : 1
Format : HEVC
Format/Info : High Efficiency Video Coding
Format profile : [email protected]@Main
Codec ID : V_MPEGH/ISO/HEVC
Duration : 1 h 4 min
Bit rate : 704 kb/s
Width : 1 280 pixels
Height : 640 pixels
Display aspect ratio : 2.000
Frame rate mode : Constant
Frame rate : 23.976 (24000/1001) FPS
Color space : YUV
Chroma subsampling : 4:2:0
Bit depth : 8 bits
Bits/(Pixel*Frame) : 0.036
Stream size : 326 MiB (91%)
Default : Yes
Forced : No
Color range : Limited
Color primaries : BT.709
Transfer characteristics : BT.709
Matrix coefficients : BT.709

Audio
ID : 2
Format : AAC LC SBR
Format/Info : Advanced Audio Codec Low Complexity with Spectral Band Replication
Commercial name : HE-AAC
Format settings : Explicit
Codec ID : A_AAC-2
Duration : 1 h 4 min
Bit rate : 68.3 kb/s
Channel(s) : 2 channels
Channel layout : L R
Sampling rate : 48.0 kHz
Frame rate : 23.438 FPS (2048 SPF)
Compression mode : Lossy
Delay relative to video : 23 ms
Stream size : 31.7 MiB (9%)
Default : Yes
Forced : No

Text
ID : 3
Format : UTF-8
Codec ID : S_TEXT/UTF8
Codec ID/Info : UTF-8 Plain Text
Duration : 1 h 4 min
Bit rate : 74 b/s
Count of elements : 1234
Stream size : 35.1 KiB (0%)
Default : Yes
Forced : No

1080p.x265-BvS

 

Leave a Reply

Your email address will not be published. Required fields are marked *