Élite All Season | 720p & 1080p NF WEBRip x265-BvS

When three working-class teenagers begin attending an exclusive private school in Spain, the clash between them and the wealthy students leads to murder.

Links: HOMEPAGE – TV.com

Note: In Spanish with English/French/German/Spanish Selectable Subtitles

DOWNLOAD

VIP (GOOGLE DRIVE)

This content is reserved for registered users. BUY A VIP MEMBERSHIP HERE and login to be able to see it.

FREE

NFO

WEBRip.x264-ION10

 

720p.x265-BvS

General
Unique ID : 83573249063840855430772373167277231640 (0x3EDF9F4E8A4AA01F43A7020AFFF24E18)
Complete name : Élite.S01E01.SPANISH.720p.WEBRip.2CH.x265.HEVC.mkv
Format : Matroska
Format version : Version 4
File size : 248 MiB
Duration : 55 min 56 s
Overall bit rate : 619 kb/s
Movie name : Élite.S01E01.SPANISH.720p.WEBRip.2CH.x265.HEVC-PSA [enthus1ast.com] Encoded date : UTC 2018-10-13 09:20:04
Writing application : mkvmerge v27.0.0 (‘Metropolis’) 64-bit
Writing library : libebml v1.3.6 + libmatroska v1.4.9

Video
ID : 1
Format : HEVC
Format/Info : High Efficiency Video Coding
Format profile : [email protected]@Main
Codec ID : V_MPEGH/ISO/HEVC
Duration : 55 min 56 s
Bit rate : 540 kb/s
Width : 1 280 pixels
Height : 640 pixels
Display aspect ratio : 2.000
Frame rate mode : Constant
Frame rate : 25.000 FPS
Color space : YUV
Chroma subsampling : 4:2:0
Bit depth : 8 bits
Bits/(Pixel*Frame) : 0.026
Stream size : 216 MiB (87%)
Language : Spanish
Default : Yes
Forced : No

Audio
ID : 2
Format : AAC LC SBR
Format/Info : Advanced Audio Codec Low Complexity with Spectral Band Replication
Commercial name : HE-AAC
Format settings : Explicit
Codec ID : A_AAC-2
Duration : 55 min 56 s
Bit rate : 72.0 kb/s
Channel(s) : 2 channels
Channel layout : L R
Sampling rate : 48.0 kHz
Frame rate : 23.438 FPS (2048 SPF)
Compression mode : Lossy
Delay relative to video : 23 ms
Stream size : 29.3 MiB (12%)
Language : Spanish
Default : Yes
Forced : No

Text #1
ID : 3
Format : UTF-8
Codec ID : S_TEXT/UTF8
Codec ID/Info : UTF-8 Plain Text
Duration : 54 min 44 s
Bit rate : 58 b/s
Count of elements : 710
Stream size : 23.3 KiB (0%)
Title : English [Full] Language : English
Default : Yes
Forced : No

Text #2
ID : 4
Format : UTF-8
Codec ID : S_TEXT/UTF8
Codec ID/Info : UTF-8 Plain Text
Duration : 51 min 56 s
Bit rate : 69 b/s
Count of elements : 750
Stream size : 26.3 KiB (0%)
Title : English [SDH] Language : English
Default : No
Forced : No

Text #3
ID : 5
Format : UTF-8
Codec ID : S_TEXT/UTF8
Codec ID/Info : UTF-8 Plain Text
Duration : 54 min 9 s
Bit rate : 70 b/s
Count of elements : 840
Stream size : 27.9 KiB (0%)
Title : Castilian [SDH] Language : Spanish
Default : No
Forced : No

Text #4
ID : 6
Format : UTF-8
Codec ID : S_TEXT/UTF8
Codec ID/Info : UTF-8 Plain Text
Duration : 54 min 10 s
Bit rate : 57 b/s
Count of elements : 668
Stream size : 22.9 KiB (0%)
Title : French [Full] Language : French
Default : No
Forced : No

Text #5
ID : 7
Format : UTF-8
Codec ID : S_TEXT/UTF8
Codec ID/Info : UTF-8 Plain Text
Duration : 55 min 24 s
Bit rate : 50 b/s
Count of elements : 727
Stream size : 20.6 KiB (0%)
Title : German [Full] Language : German
Default : No
Forced : No

Text #6
ID : 8
Format : UTF-8
Codec ID : S_TEXT/UTF8
Codec ID/Info : UTF-8 Plain Text
Duration : 54 min 9 s
Bit rate : 55 b/s
Count of elements : 724
Stream size : 22.1 KiB (0%)
Title : Italian [Full] Language : Italian
Default : No
Forced : No

Text #7
ID : 9
Format : UTF-8
Codec ID : S_TEXT/UTF8
Codec ID/Info : UTF-8 Plain Text
Duration : 54 min 9 s
Bit rate : 57 b/s
Count of elements : 749
Stream size : 22.8 KiB (0%)
Title : Portuguese [Full] Language : Portuguese
Default : No
Forced : No

Text #8
ID : 10
Format : UTF-8
Codec ID : S_TEXT/UTF8
Codec ID/Info : UTF-8 Plain Text
Duration : 54 min 11 s
Bit rate : 50 b/s
Count of elements : 743
Stream size : 20.2 KiB (0%)
Title : Brazilian Portuguese [Full] Language : Portuguese
Default : No
Forced : No

Text #9
ID : 11
Format : UTF-8
Codec ID : S_TEXT/UTF8
Codec ID/Info : UTF-8 Plain Text
Duration : 54 min 9 s
Bit rate : 45 b/s
Count of elements : 745
Stream size : 18.1 KiB (0%)
Title : Polish [Full] Language : Polish
Default : No
Forced : No

Text #10
ID : 12
Format : UTF-8
Codec ID : S_TEXT/UTF8
Codec ID/Info : UTF-8 Plain Text
Duration : 55 min 27 s
Bit rate : 53 b/s
Count of elements : 742
Stream size : 21.8 KiB (0%)
Title : Turkish [Full] Language : Turkish
Default : No
Forced : No

Text #11
ID : 13
Format : UTF-8
Codec ID : S_TEXT/UTF8
Codec ID/Info : UTF-8 Plain Text
Duration : 54 min 9 s
Bit rate : 51 b/s
Count of elements : 730
Stream size : 20.4 KiB (0%)
Title : Swedish [Full] Language : Swedish
Default : No
Forced : No

Text #12
ID : 14
Format : UTF-8
Codec ID : S_TEXT/UTF8
Codec ID/Info : UTF-8 Plain Text
Duration : 55 min 26 s
Bit rate : 53 b/s
Count of elements : 749
Stream size : 21.9 KiB (0%)
Title : Danish [Full] Language : Danish
Default : No
Forced : No

Text #13
ID : 15
Format : UTF-8
Codec ID : S_TEXT/UTF8
Codec ID/Info : UTF-8 Plain Text
Duration : 54 min 10 s
Bit rate : 45 b/s
Count of elements : 748
Stream size : 18.1 KiB (0%)
Title : Finnish [Full] Language : Finnish
Default : No
Forced : No

Text #14
ID : 16
Format : UTF-8
Codec ID : S_TEXT/UTF8
Codec ID/Info : UTF-8 Plain Text
Duration : 54 min 11 s
Bit rate : 50 b/s
Count of elements : 723
Stream size : 20.1 KiB (0%)
Title : Dutch [Full] Language : Dutch
Default : No
Forced : No

Text #15
ID : 17
Format : UTF-8
Codec ID : S_TEXT/UTF8
Codec ID/Info : UTF-8 Plain Text
Duration : 55 min 26 s
Bit rate : 49 b/s
Count of elements : 681
Stream size : 20.2 KiB (0%)
Title : Norwegian [Full] Language : Norwegian
Default : No
Forced : No

Text #16
ID : 18
Format : UTF-8
Codec ID : S_TEXT/UTF8
Codec ID/Info : UTF-8 Plain Text
Duration : 54 min 10 s
Bit rate : 81 b/s
Count of elements : 746
Stream size : 32.5 KiB (0%)
Title : Russian [Full] Language : Russian
Default : No
Forced : No

Text #17
ID : 19
Format : UTF-8
Codec ID : S_TEXT/UTF8
Codec ID/Info : UTF-8 Plain Text
Duration : 54 min 11 s
Bit rate : 86 b/s
Count of elements : 719
Stream size : 34.5 KiB (0%)
Title : Greek [Full] Language : Greek
Default : No
Forced : No

Text #18
ID : 20
Format : UTF-8
Codec ID : S_TEXT/UTF8
Codec ID/Info : UTF-8 Plain Text
Duration : 54 min 10 s
Bit rate : 91 b/s
Count of elements : 748
Stream size : 36.3 KiB (0%)
Title : Hebrew [Full] Language : Hebrew
Default : No
Forced : No

Text #19
ID : 21
Format : UTF-8
Codec ID : S_TEXT/UTF8
Codec ID/Info : UTF-8 Plain Text
Duration : 54 min 9 s
Bit rate : 113 b/s
Count of elements : 723
Stream size : 44.8 KiB (0%)
Title : Arabic [Full] Language : Arabic
Default : No
Forced : No

Text #20
ID : 22
Format : UTF-8
Codec ID : S_TEXT/UTF8
Codec ID/Info : UTF-8 Plain Text
Duration : 54 min 9 s
Bit rate : 51 b/s
Count of elements : 744
Stream size : 20.4 KiB (0%)
Title : Romanian [Full] Language : Romanian
Default : No
Forced : No

Text #21
ID : 23
Format : UTF-8
Codec ID : S_TEXT/UTF8
Codec ID/Info : UTF-8 Plain Text
Duration : 54 min 9 s
Bit rate : 50 b/s
Count of elements : 746
Stream size : 19.9 KiB (0%)
Title : Indonesian [Full] Language : Indonesian
Default : No
Forced : No

Text #22
ID : 24
Format : UTF-8
Codec ID : S_TEXT/UTF8
Codec ID/Info : UTF-8 Plain Text
Duration : 54 min 9 s
Bit rate : 146 b/s
Count of elements : 751
Stream size : 58.1 KiB (0%)
Title : Thai [Full] Language : Thai
Default : No
Forced : No

Text #23
ID : 25
Format : UTF-8
Codec ID : S_TEXT/UTF8
Codec ID/Info : UTF-8 Plain Text
Duration : 54 min 9 s
Bit rate : 60 b/s
Count of elements : 752
Stream size : 24.0 KiB (0%)
Title : Korean [Full] Language : Korean
Default : No
Forced : No

Text #24
ID : 26
Format : UTF-8
Codec ID : S_TEXT/UTF8
Codec ID/Info : UTF-8 Plain Text
Duration : 55 min 23 s
Bit rate : 54 b/s
Count of elements : 751
Stream size : 22.0 KiB (0%)
Title : Chinese (Simplified) [Full] Language : Chinese
Default : No
Forced : No

Text #25
ID : 27
Format : UTF-8
Codec ID : S_TEXT/UTF8
Codec ID/Info : UTF-8 Plain Text
Duration : 54 min 9 s
Bit rate : 55 b/s
Count of elements : 752
Stream size : 21.9 KiB (0%)
Title : Chinese (Traditional) [Full] Language : Chinese
Default : No
Forced : No

Text #26
ID : 28
Format : UTF-8
Codec ID : S_TEXT/UTF8
Codec ID/Info : UTF-8 Plain Text
Duration : 55 min 24 s
Bit rate : 42 b/s
Count of elements : 757
Stream size : 17.3 KiB (0%)
Title : Japanese [Full] Language : Japanese
Default : No
Forced : No

1080p.x265-BvS

General
Unique ID : 171264490438578335116804355292336386019 (0x80D8574F5A7D60EB1645714F8F9A6FE3)
Complete name : Élite.S01E01.SPANISH.1080p.WEBRip.6CH.x265.HEVC.mkv
Format : Matroska
Format version : Version 4
File size : 587 MiB
Duration : 55 min 56 s
Overall bit rate : 1 467 kb/s
Movie name : PSArips.com | Élite.S01E01.SPANISH.1080p.WEBRip.6CH.x265.HEVC-PSA.mkv
Encoded date : UTC 2018-10-15 06:10:19
Writing application : mkvmerge v27.0.0 (‘Metropolis’) 64-bit
Writing library : libebml v1.3.6 + libmatroska v1.4.9

Video
ID : 1
Format : HEVC
Format/Info : High Efficiency Video Coding
Format profile : [email protected]@Main
Codec ID : V_MPEGH/ISO/HEVC
Duration : 55 min 56 s
Bit rate : 1 252 kb/s
Width : 1 920 pixels
Height : 960 pixels
Display aspect ratio : 2.000
Frame rate mode : Constant
Frame rate : 25.000 FPS
Color space : YUV
Chroma subsampling : 4:2:0
Bit depth : 8 bits
Bits/(Pixel*Frame) : 0.027
Stream size : 501 MiB (85%)
Default : Yes
Forced : No

Audio
ID : 2
Format : AAC LC SBR
Format/Info : Advanced Audio Codec Low Complexity with Spectral Band Replication
Commercial name : HE-AAC
Format settings : Explicit
Codec ID : A_AAC-2
Duration : 55 min 56 s
Bit rate : 209 kb/s
Channel(s) : 6 channels
Channel layout : C L R Ls Rs LFE
Sampling rate : 48.0 kHz
Frame rate : 23.438 FPS (2048 SPF)
Compression mode : Lossy
Delay relative to video : 23 ms
Stream size : 83.7 MiB (14%)
Language : Spanish
Default : Yes
Forced : No

Text #1
ID : 3
Format : UTF-8
Codec ID : S_TEXT/UTF8
Codec ID/Info : UTF-8 Plain Text
Duration : 54 min 44 s
Bit rate : 58 b/s
Count of elements : 710
Stream size : 23.3 KiB (0%)
Title : English [Full] Language : English
Default : Yes
Forced : No

Text #2
ID : 4
Format : UTF-8
Codec ID : S_TEXT/UTF8
Codec ID/Info : UTF-8 Plain Text
Duration : 51 min 56 s
Bit rate : 69 b/s
Count of elements : 750
Stream size : 26.3 KiB (0%)
Title : English [SDH] Language : English
Default : No
Forced : No

Text #3
ID : 5
Format : UTF-8
Codec ID : S_TEXT/UTF8
Codec ID/Info : UTF-8 Plain Text
Duration : 54 min 9 s
Bit rate : 70 b/s
Count of elements : 840
Stream size : 27.9 KiB (0%)
Title : Castilian [SDH] Language : Spanish
Default : No
Forced : No

Text #4
ID : 6
Format : UTF-8
Codec ID : S_TEXT/UTF8
Codec ID/Info : UTF-8 Plain Text
Duration : 54 min 10 s
Bit rate : 57 b/s
Count of elements : 668
Stream size : 22.9 KiB (0%)
Title : French [Full] Language : French
Default : No
Forced : No

Text #5
ID : 7
Format : UTF-8
Codec ID : S_TEXT/UTF8
Codec ID/Info : UTF-8 Plain Text
Duration : 55 min 24 s
Bit rate : 50 b/s
Count of elements : 727
Stream size : 20.6 KiB (0%)
Title : German [Full] Language : German
Default : No
Forced : No

Text #6
ID : 8
Format : UTF-8
Codec ID : S_TEXT/UTF8
Codec ID/Info : UTF-8 Plain Text
Duration : 54 min 9 s
Bit rate : 55 b/s
Count of elements : 724
Stream size : 22.1 KiB (0%)
Title : Italian [Full] Language : Italian
Default : No
Forced : No

Text #7
ID : 9
Format : UTF-8
Codec ID : S_TEXT/UTF8
Codec ID/Info : UTF-8 Plain Text
Duration : 54 min 9 s
Bit rate : 57 b/s
Count of elements : 749
Stream size : 22.8 KiB (0%)
Title : Portuguese [Full] Language : Portuguese
Default : No
Forced : No

Text #8
ID : 10
Format : UTF-8
Codec ID : S_TEXT/UTF8
Codec ID/Info : UTF-8 Plain Text
Duration : 54 min 11 s
Bit rate : 50 b/s
Count of elements : 743
Stream size : 20.2 KiB (0%)
Title : Brazilian Portuguese [Full] Language : Portuguese
Default : No
Forced : No

Text #9
ID : 11
Format : UTF-8
Codec ID : S_TEXT/UTF8
Codec ID/Info : UTF-8 Plain Text
Duration : 54 min 9 s
Bit rate : 45 b/s
Count of elements : 745
Stream size : 18.1 KiB (0%)
Title : Polish [Full] Language : Polish
Default : No
Forced : No

Text #10
ID : 12
Format : UTF-8
Codec ID : S_TEXT/UTF8
Codec ID/Info : UTF-8 Plain Text
Duration : 55 min 27 s
Bit rate : 53 b/s
Count of elements : 742
Stream size : 21.8 KiB (0%)
Title : Turkish [Full] Language : Turkish
Default : No
Forced : No

Text #11
ID : 13
Format : UTF-8
Codec ID : S_TEXT/UTF8
Codec ID/Info : UTF-8 Plain Text
Duration : 54 min 9 s
Bit rate : 51 b/s
Count of elements : 730
Stream size : 20.4 KiB (0%)
Title : Swedish [Full] Language : Swedish
Default : No
Forced : No

Text #12
ID : 14
Format : UTF-8
Codec ID : S_TEXT/UTF8
Codec ID/Info : UTF-8 Plain Text
Duration : 55 min 26 s
Bit rate : 53 b/s
Count of elements : 749
Stream size : 21.9 KiB (0%)
Title : Danish [Full] Language : Danish
Default : No
Forced : No

Text #13
ID : 15
Format : UTF-8
Codec ID : S_TEXT/UTF8
Codec ID/Info : UTF-8 Plain Text
Duration : 54 min 10 s
Bit rate : 45 b/s
Count of elements : 748
Stream size : 18.1 KiB (0%)
Title : Finnish [Full] Language : Finnish
Default : No
Forced : No

Text #14
ID : 16
Format : UTF-8
Codec ID : S_TEXT/UTF8
Codec ID/Info : UTF-8 Plain Text
Duration : 54 min 11 s
Bit rate : 50 b/s
Count of elements : 723
Stream size : 20.1 KiB (0%)
Title : Dutch [Full] Language : Dutch
Default : No
Forced : No

Text #15
ID : 17
Format : UTF-8
Codec ID : S_TEXT/UTF8
Codec ID/Info : UTF-8 Plain Text
Duration : 55 min 26 s
Bit rate : 49 b/s
Count of elements : 681
Stream size : 20.2 KiB (0%)
Title : Norwegian [Full] Language : Norwegian
Default : No
Forced : No

Text #16
ID : 18
Format : UTF-8
Codec ID : S_TEXT/UTF8
Codec ID/Info : UTF-8 Plain Text
Duration : 54 min 10 s
Bit rate : 81 b/s
Count of elements : 746
Stream size : 32.5 KiB (0%)
Title : Russian [Full] Language : Russian
Default : No
Forced : No

Text #17
ID : 19
Format : UTF-8
Codec ID : S_TEXT/UTF8
Codec ID/Info : UTF-8 Plain Text
Duration : 54 min 11 s
Bit rate : 86 b/s
Count of elements : 719
Stream size : 34.5 KiB (0%)
Title : Greek [Full] Language : Greek
Default : No
Forced : No

Text #18
ID : 20
Format : UTF-8
Codec ID : S_TEXT/UTF8
Codec ID/Info : UTF-8 Plain Text
Duration : 54 min 10 s
Bit rate : 91 b/s
Count of elements : 748
Stream size : 36.3 KiB (0%)
Title : Hebrew [Full] Language : Hebrew
Default : No
Forced : No

Text #19
ID : 21
Format : UTF-8
Codec ID : S_TEXT/UTF8
Codec ID/Info : UTF-8 Plain Text
Duration : 54 min 9 s
Bit rate : 113 b/s
Count of elements : 723
Stream size : 44.8 KiB (0%)
Title : Arabic [Full] Language : Arabic
Default : No
Forced : No

Text #20
ID : 22
Format : UTF-8
Codec ID : S_TEXT/UTF8
Codec ID/Info : UTF-8 Plain Text
Duration : 54 min 9 s
Bit rate : 51 b/s
Count of elements : 744
Stream size : 20.4 KiB (0%)
Title : Romanian [Full] Language : Romanian
Default : No
Forced : No

Text #21
ID : 23
Format : UTF-8
Codec ID : S_TEXT/UTF8
Codec ID/Info : UTF-8 Plain Text
Duration : 54 min 9 s
Bit rate : 50 b/s
Count of elements : 746
Stream size : 19.9 KiB (0%)
Title : Indonesian [Full] Language : Indonesian
Default : No
Forced : No

Text #22
ID : 24
Format : UTF-8
Codec ID : S_TEXT/UTF8
Codec ID/Info : UTF-8 Plain Text
Duration : 54 min 9 s
Bit rate : 146 b/s
Count of elements : 751
Stream size : 58.1 KiB (0%)
Title : Thai [Full] Language : Thai
Default : No
Forced : No

Text #23
ID : 25
Format : UTF-8
Codec ID : S_TEXT/UTF8
Codec ID/Info : UTF-8 Plain Text
Duration : 54 min 9 s
Bit rate : 60 b/s
Count of elements : 752
Stream size : 24.0 KiB (0%)
Title : Korean [Full] Language : Korean
Default : No
Forced : No

Text #24
ID : 26
Format : UTF-8
Codec ID : S_TEXT/UTF8
Codec ID/Info : UTF-8 Plain Text
Duration : 55 min 23 s
Bit rate : 54 b/s
Count of elements : 751
Stream size : 22.0 KiB (0%)
Title : Chinese (Simplified) [Full] Language : Chinese
Default : No
Forced : No

Text #25
ID : 27
Format : UTF-8
Codec ID : S_TEXT/UTF8
Codec ID/Info : UTF-8 Plain Text
Duration : 54 min 9 s
Bit rate : 55 b/s
Count of elements : 752
Stream size : 21.9 KiB (0%)
Title : Chinese (Traditional) [Full] Language : Chinese
Default : No
Forced : No

Text #26
ID : 28
Format : UTF-8
Codec ID : S_TEXT/UTF8
Codec ID/Info : UTF-8 Plain Text
Duration : 55 min 24 s
Bit rate : 42 b/s
Count of elements : 757
Stream size : 17.3 KiB (0%)
Title : Japanese [Full] Language : Japanese
Default : No
Forced : No

Leave a Reply

Your email address will not be published. Required fields are marked *