El Candidato All Season | 720p & 1080p AMZN WEBRip x265-BvS

El.Candidato

Rookie CIA field operative Isabel Alfaro works alongside infamous CIA legend Wayne Addison to bring down Rafael Bautista, Mexico’s most vicious and brilliant narco. Her mission brings her into conflict with Eduardo Yzaguirre, her former boyfriend and the current Mayor of Mexico City, the cleanest and most inspirational politician in the country.

Links: HOMEPAGE – iMDB

Note: In Spanish With English Selectable

DOWNLOAD

VIP (GOOGLE DRIVE)

This content is reserved for registered users. BUY A VIP MEMBERSHIP HERE and login to be able to see it.

FREE

NFO

WEBRip.x264-ION10

General
Complete name : El.Candidato.S01E01.WEBRip.x264-ION10.mp4
Format : MPEG-4
Format profile : Base Media
Codec ID : isom (isom/iso2/avc1/mp41)
File size : 494 MiB
Duration : 52 min 50 s
Overall bit rate : 1 306 kb/s
Movie name : El.Candidato.S01E01.WEBRip.x264-ION10
Encoded date : UTC 2020-07-17 19:51:47
Tagged date : UTC 2020-07-17 19:51:47
Writing application : Lavf58.0.101
Comment : El.Candidato.S01E01.WEBRip.x264-ION10

Video
ID : 1
Format : AVC
Format/Info : Advanced Video Codec
Format profile : [email protected]
Format settings : CABAC / 5 Ref Frames
Format settings, CABAC : Yes
Format settings, Reference frames : 5 frames
Codec ID : avc1
Codec ID/Info : Advanced Video Coding
Duration : 52 min 50 s
Bit rate : 1 045 kb/s
Nominal bit rate : 1 100 kb/s
Width : 720 pixels
Height : 360 pixels
Display aspect ratio : 2.000
Frame rate mode : Constant
Frame rate : 23.976 (24000/1001) FPS
Color space : YUV
Chroma subsampling : 4:2:0
Bit depth : 8 bits
Scan type : Progressive
Bits/(Pixel*Frame) : 0.168
Stream size : 395 MiB (80%)
Title : El.Candidato.S01E01.WEBRip.x264-ION10
Writing library : x264 core 148 r2795M aaa9aa8
Encoding settings : cabac=1 / ref=5 / deblock=1:-1:-1 / analyse=0x3:0x113 / me=umh / subme=9 / psy=1 / psy_rd=1.00:0.15 / mixed_ref=1 / me_range=16 / chroma_me=1 / trellis=2 / 8x8dct=1 / cqm=0 / deadzone=21,11 / fast_pskip=1 / chroma_qp_offset=-3 / threads=24 / lookahead_threads=2 / sliced_threads=0 / nr=0 / decimate=1 / interlaced=0 / bluray_compat=0 / constrained_intra=0 / bframes=3 / b_pyramid=2 / b_adapt=2 / b_bias=0 / direct=3 / weightb=1 / open_gop=0 / weightp=2 / keyint=250 / keyint_min=23 / scenecut=40 / intra_refresh=0 / rc_lookahead=50 / rc=abr / mbtree=1 / bitrate=1100 / ratetol=1.0 / qcomp=0.60 / qpmin=0 / qpmax=69 / qpstep=4 / ip_ratio=1.40 / aq=1:1.00
Encoded date : UTC 2020-07-17 19:51:47
Tagged date : UTC 2020-07-17 19:51:47
Codec configuration box : avcC

Audio
ID : 2
Format : AAC LC
Format/Info : Advanced Audio Codec Low Complexity
Codec ID : mp4a-40-2
Duration : 52 min 50 s
Duration_LastFrame : -11 ms
Bit rate mode : Constant
Bit rate : 256 kb/s
Channel(s) : 2 channels
Channel layout : L R
Sampling rate : 48.0 kHz
Frame rate : 46.875 FPS (1024 SPF)
Compression mode : Lossy
Stream size : 96.8 MiB (20%)
Title : El.Candidato.S01E01.WEBRip.x264-ION10
Language : Spanish
Default : Yes
Alternate group : 1
Encoded date : UTC 2020-07-17 19:51:47
Tagged date : UTC 2020-07-17 19:51:47

720p.x265-BvS

General
Unique ID : 71882109415563924272584509646675925749 (0x3613FD9E71B1ECCF6988917510A85AF5)
Complete name : El.candidato.s01e01.720p.amzn.web-dl.x265-BvS.mkv
Format : Matroska
Format version : Version 4
File size : 226 MiB
Duration : 52 min 50 s
Overall bit rate : 597 kb/s
Movie name : BvSRips
Encoded date : UTC 2020-07-21 01:30:00
Writing application : mkvmerge v46.0.0 (‘No Deeper Escape’) 64-bit
Writing library : libebml v1.3.10 + libmatroska v1.5.2

Video
ID : 1
Format : HEVC
Format/Info : High Efficiency Video Coding
Format profile : [email protected]@Main
Codec ID : V_MPEGH/ISO/HEVC
Duration : 52 min 50 s
Bit rate : 467 kb/s
Width : 1 280 pixels
Height : 720 pixels
Display aspect ratio : 16:9
Frame rate mode : Constant
Frame rate : 23.976 (24000/1001) FPS
Color space : YUV
Chroma subsampling : 4:2:0
Bit depth : 8 bits
Bits/(Pixel*Frame) : 0.021
Stream size : 177 MiB (78%)
Writing library : x265 1.5:[Windows][GCC 4.7.0][32 bit] Encoding settings : wpp / ctu=64 / tu-intra-depth=1 / tu-inter-depth=1 / me=1 / subme=2 / merange=57 / no-rect / no-amp / max-merge=2 / temporal-mvp / early-skip / no-fast-cbf / rdpenalty=0 / no-tskip / no-tskip-fast / strong-intra-smoothing / no-lossless / no-cu-lossless / no-constrained-intra / fast-intra / open-gop / interlace=0 / keyint=240 / min-keyint=24 / scenecut=40 / rc-lookahead=15 / bframes=4 / bframe-bias=0 / b-adapt=0 / ref=1 / weightp / no-weightb / aq-mode=0 / aq-strength=0.00 / cbqpoffs=0 / crqpoffs=0 / rd=2 / psy-rd=0.00 / psy-rdoq=0.00 / signhide / lft / sao / no-sao-non-deblock / b-pyramid / no-cutree / rc=crf / crf=25.0 / qcomp=0.60 / qpmin=0 / qpmax=51 / qpstep=4 / ipratio=1.40 / pbratio=1.30
Default : Yes
Forced : No
Color range : Limited
Color primaries : BT.709
Transfer characteristics : BT.709
Matrix coefficients : BT.709

Audio
ID : 2
Format : AAC LC SBR
Format/Info : Advanced Audio Codec Low Complexity with Spectral Band Replication
Commercial name : HE-AAC
Format settings : NBC
Codec ID : A_AAC-5
Duration : 52 min 50 s
Bit rate : 128 kb/s
Channel(s) : 2 channels
Channel layout : L R
Sampling rate : 44.1 kHz
Frame rate : 21.533 FPS (2048 SPF)
Compression mode : Lossy
Stream size : 48.4 MiB (21%)
Language : Spanish
Default : Yes
Forced : No

Text
ID : 3
Format : ASS
Codec ID : S_TEXT/ASS
Codec ID/Info : Advanced Sub Station Alpha
Duration : 4 s 500 ms
Bit rate : 149 b/s
Count of elements : 1
Compression mode : Lossless
Stream size : 84.0 Bytes (0%)
Default : Yes
Forced : No

Menu
00:00:00.000 : en:Amazon Original
00:00:05.172 : en:Scene 2
00:02:01.163 : en:Opening Credits
00:02:46.208 : en:Scene 4
00:06:30.140 : en:Scene 5
00:07:27.197 : en:Scene 6
00:09:02.125 : en:Scene 7
00:10:57.156 : en:Scene 8
00:14:56.229 : en:Scene 9
00:17:41.102 : en:Scene 10
00:20:21.262 : en:Scene 11
00:21:15.191 : en:Scene 12
00:24:12.159 : en:Scene 13
00:25:13.137 : en:Scene 14
00:30:27.242 : en:Scene 15
00:33:13.158 : en:Scene 16
00:34:33.238 : en:Scene 17
00:37:29.164 : en:Scene 18
00:39:42.130 : en:Scene 19
00:42:17.160 : en:Scene 20
00:43:10.213 : en:Scene 21
00:44:17.238 : en:Scene 22
00:47:57.166 : en:Scene 23
00:50:32.112 : en:End Credits

1080p.x265-BvS

 

Leave a Reply

Your email address will not be published. Required fields are marked *