Dirk Gently's Holistic Detective Agency All Season | 720p & 1080p AMZN WEBRip x265-BvS

A group of social pariahs, with somewhat direct connections to the happenings of the universe, follow the holistic philosophy of “everything is connected”. Dirk embraces being a weirdness magnet and is a self-styled “holistic detective”. Dirk drags his unwitting and unwilling Dr. Watson, Todd, into his absurd “cases” that decipher how everything is connected.

Links: HOMEPAGE – TVDB

Note: In English with English Selectable Subtitles

DOWNLOAD

VIP (GOOGLE DRIVE)

This content is reserved for registered users. BUY A VIP MEMBERSHIP HERE and login to be able to see it.

FREE

  • SEASON 1: 720p x265 (ONLY VIP)
  • SEASON 2: 720p x265 (ONLY VIP)

NFO

WEBRip.x264-ION10

 

720p.x265-BvS

General
Unique ID : 212536471999233776656659392279593573817 (0x9FE5091B19C99C1E8AC69011470F5DB9)
Complete name : Dirk.Gentlys.Holistic.Detective.Agency.S01E01.Horizons.720p.10bit.BluRay.2CH.x265.HEVC-PSA.mkv
Format : Matroska
Format version : Version 4
File size : 372 MiB
Duration : 53 min 18 s
Overall bit rate : 976 kb/s
Movie name : PSArips.com | Dirk.Gently’s.Holistic.Detective.Agency.S01E01.Horizons.720p.10bit.BluRay.2CH.x265.HEVC-PSA
Encoded date : UTC 2017-01-24 14:55:44
Writing application : mkvmerge v9.7.1 (‘Pandemonium’) 64bit
Writing library : libebml v1.3.4 + libmatroska v1.4.5

Video
ID : 1
Format : HEVC
Format/Info : High Efficiency Video Coding
Format profile : Main [email protected]@Main
Codec ID : V_MPEGH/ISO/HEVC
Duration : 53 min 18 s
Bit rate : 905 kb/s
Width : 1 280 pixels
Height : 720 pixels
Display aspect ratio : 16:9
Frame rate mode : Constant
Frame rate : 23.976 (24000/1001) FPS
Color space : YUV
Chroma subsampling : 4:2:0
Bit depth : 10 bits
Bits/(Pixel*Frame) : 0.041
Stream size : 345 MiB (93%)
Default : Yes
Forced : No

Audio
ID : 2
Format : AAC LC SBR
Format/Info : Advanced Audio Codec Low Complexity with Spectral Band Replication
Commercial name : HE-AAC
Format settings : Explicit
Codec ID : A_AAC-2
Duration : 53 min 17 s
Bit rate : 69.4 kb/s
Channel(s) : 2 channels
Channel layout : L R
Sampling rate : 48.0 kHz
Frame rate : 23.438 FPS (2048 SPF)
Compression mode : Lossy
Delay relative to video : 23 ms
Stream size : 26.5 MiB (7%)
Default : Yes
Forced : No

Text
ID : 3
Format : UTF-8
Codec ID : S_TEXT/UTF8
Codec ID/Info : UTF-8 Plain Text
Duration : 53 min 4 s
Bit rate : 68 b/s
Count of elements : 992
Stream size : 26.8 KiB (0%)
Default : Yes
Forced : No

 

1080p.x265-BvS

 

Leave a Reply

Your email address will not be published. Required fields are marked *