DC Legends of Tomorrow All Season | 720p & 1080p AMZN WEBRip x265-BvS

DC Legends of Tomorrow

When heroes alone are not enough… the world needs legends. Having seen the future, one he will desperately try to prevent from happening, time-traveling rogue Rip Hunter is tasked with assembling a disparate group of both heroes and villains to confront an unstoppable threat—one in which not only is the planet at stake, but all of time itself.

Links: HOMEPAGE – TVDB

Note: In English with English/French/German/Spanish Subtitles

DOWNLOAD

VIP (GOOGLE DRIVE)

This content is reserved for registered users. BUY A VIP MEMBERSHIP HERE and login to be able to see it.

FREE

NFO

WEBRip.x264-ION10

 

720p.x265-BvS

General
Unique ID : 236099953298455646016640314042273422305 (0xB19F326E1B45C4A49CE4CCAA4F66DBE1)
Complete name : DC’s.Legends.of.Tomorrow.S01E01.Pilot.Part.1.720p.WEB-DL.x265.HEVC.mkv
Format : Matroska
Format version : Version 4
File size : 244 MiB
Duration : 44 min 28 s
Overall bit rate : 766 kb/s
Movie name : PSArips.com | DC’s.Legends.of.Tomorrow.S01E01.Pilot.Part.1.720p.WEB-DL.2CH.x265.HEVC-PSA
Encoded date : UTC 2016-01-22 13:35:55
Writing application : mkvmerge v8.8.0 (‘Wind at my back’) 64bit
Writing library : libebml v1.3.3 + libmatroska v1.4.4

Video
ID : 1
Format : HEVC
Format/Info : High Efficiency Video Coding
Format profile : [email protected]@Main
Codec ID : V_MPEGH/ISO/HEVC
Duration : 44 min 28 s
Bit rate : 693 kb/s
Width : 1 280 pixels
Height : 720 pixels
Display aspect ratio : 16:9
Frame rate mode : Constant
Frame rate : 23.976 (23976/1000) FPS
Original frame rate : 23.976 (24000/1001) FPS
Color space : YUV
Chroma subsampling : 4:2:0
Bit depth : 8 bits
Bits/(Pixel*Frame) : 0.031
Stream size : 221 MiB (91%)
Default : Yes
Forced : No
Color range : Limited
Color primaries : BT.709
Transfer characteristics : BT.709
Matrix coefficients : BT.709

Audio
ID : 2
Format : AAC LC SBR
Format/Info : Advanced Audio Codec Low Complexity with Spectral Band Replication
Commercial name : HE-AAC
Format settings : NBC
Codec ID : A_AAC-5
Duration : 44 min 28 s
Bit rate : 70.2 kb/s
Channel(s) : 2 channels
Channel layout : L R
Sampling rate : 48.0 kHz
Frame rate : 23.438 FPS (2048 SPF)
Compression mode : Lossy
Delay relative to video : -105 ms
Stream size : 22.3 MiB (9%)
Title : Stereo
Language : English
Default : Yes
Forced : No

Text
ID : 3
Format : UTF-8
Codec ID : S_TEXT/UTF8
Codec ID/Info : UTF-8 Plain Text
Duration : 44 min 9 s
Bit rate : 91 b/s
Count of elements : 1000
Stream size : 29.5 KiB (0%)
Default : Yes
Forced : No

1080p.x265-BvS

General
Unique ID : 186117157419598567012342961825861502628 (0x8C04DC54778BD280BF559043A50E86A4)
Complete name : DC’s.Legends.of.Tomorrow.S05E01.Meet.The.Legends.1080p.WEBRip.6CH.x265.HEVC.mkv
Format : Matroska
Format version : Version 4
File size : 546 MiB
Duration : 42 min 26 s
Overall bit rate : 1 798 kb/s
Movie name : PSArips.com | DC’s.Legends.of.Tomorrow.S05E01.Meet.The.Legends.1080p.WEBRip.6CH.x265.HEVC-PSA
Encoded date : UTC 2020-01-23 05:07:00
Writing application : mkvmerge v42.0.0 (‘Overtime’) 64-bit
Writing library : libebml v1.3.10 + libmatroska v1.5.2

Video
ID : 1
Format : HEVC
Format/Info : High Efficiency Video Coding
Format profile : [email protected]@Main
Codec ID : V_MPEGH/ISO/HEVC
Duration : 42 min 26 s
Bit rate : 1 591 kb/s
Width : 1 920 pixels
Height : 1 080 pixels
Display aspect ratio : 16:9
Frame rate mode : Constant
Frame rate : 23.976 (24000/1001) FPS
Color space : YUV
Chroma subsampling : 4:2:0
Bit depth : 8 bits
Bits/(Pixel*Frame) : 0.032
Stream size : 483 MiB (89%)
Default : Yes
Forced : No
Color range : Limited
Color primaries : BT.709
Transfer characteristics : BT.709
Matrix coefficients : BT.709

Audio
ID : 2
Format : AAC LC SBR
Format/Info : Advanced Audio Codec Low Complexity with Spectral Band Replication
Commercial name : HE-AAC
Format settings : Explicit
Codec ID : A_AAC-2
Duration : 42 min 25 s
Bit rate : 205 kb/s
Channel(s) : 6 channels
Channel layout : C L R Ls Rs LFE
Sampling rate : 48.0 kHz
Frame rate : 23.438 FPS (2048 SPF)
Compression mode : Lossy
Delay relative to video : 23 ms
Stream size : 62.1 MiB (11%)
Language : English
Default : Yes
Forced : No

Text
ID : 3
Format : UTF-8
Codec ID : S_TEXT/UTF8
Codec ID/Info : UTF-8 Plain Text
Duration : 42 min 22 s
Bit rate : 94 b/s
Count of elements : 956
Stream size : 29.3 KiB (0%)
Language : English
Default : Yes
Forced : No

Leave a Reply

Your email address will not be published. Required fields are marked *