The Flight Attendant All Season | 720p & 1080p AMZN WEBRip x265-BvS

Danny Phantom: The Series – From Butch Hartman, the creator of the hit Nicktoon, The Fairly OddParents, unveils the funny, fantastic action-packed adventures of Danny Fenton, who straddles two worlds as a shy freshman at Casper High and a heroic phantom-fighter with ghostly superpowers. With his best friends, techno-geek Tucker and free-thinking Goth girl Sam, he thwarts the misdeeds of menacing ghosts; and stumbles through daily social hurdles. – Danny Phantom Press Kit.”It’s a great comedy/action show that I think you and all the other Nickelodeon animation fans are really going to love. And it’s a bit different than anything Nickelodeon has done before. They’re 22-minute stories, which is a different storytelling format for us.” – Butch HartmanNot seeing is believing..

Links: HOMEPAGE – TV.com

Note: In English with English Selectable Subtitles

DOWNLOAD

VIP (GOOGLE DRIVE)

This content is reserved for registered users. BUY A VIP MEMBERSHIP HERE and login to be able to see it.

FREE

  • SEASON 1: 720p x264 (ONLY VIP)
  • SEASON 2: 720p x264 (ONLY VIP)
  • SEASON 3: 720p x264 (ONLY VIP)

NFO

WEBRip.x264-ION10

 

720p.x264

General
Unique ID : 151128076244099077319906050657105517465 (0x71B235707BD28B76A5F251949C049B99)
Complete name : Danny.Phantom.S01E01.720p.DVDRip.x264.mkv
Format : Matroska
Format version : Version 4
File size : 151 MiB
Duration : 24 min 2 s
Overall bit rate : 877 kb/s
Movie name : Danny Phantom S01E01
Encoded date : UTC 2019-09-19 02:31:41
Writing application : mkvmerge v24.0.0 (‘Beyond The Pale’) 64-bit
Writing library : libebml v1.3.6 + libmatroska v1.4.9
Cover : Yes
Attachments : cover.jpg
Encoded by : Pahe.in™ Team

Video
ID : 1
Format : AVC
Format/Info : Advanced Video Codec
Format profile : [email protected]
Format settings : CABAC / 5 Ref Frames
Format settings, CABAC : Yes
Format settings, Reference frames : 5 frames
Codec ID : V_MPEG4/ISO/AVC
Duration : 24 min 2 s
Bit rate : 783 kb/s
Width : 1 080 pixels
Height : 720 pixels
Display aspect ratio : 3:2
Frame rate mode : Constant
Frame rate : 29.970 (30000/1001) FPS
Color space : YUV
Chroma subsampling : 4:2:0
Bit depth : 8 bits
Scan type : Progressive
Bits/(Pixel*Frame) : 0.034
Stream size : 135 MiB (89%)
Writing library : x264 core 155 r2901 7d0ff22
Encoding settings : cabac=1 / ref=5 / deblock=1:-2:-2 / analyse=0x3:0x133 / me=umh / subme=9 / psy=1 / psy_rd=1.00:0.15 / mixed_ref=1 / me_range=24 / chroma_me=1 / trellis=2 / 8x8dct=1 / cqm=0 / deadzone=21,11 / fast_pskip=1 / chroma_qp_offset=-3 / threads=22 / lookahead_threads=1 / sliced_threads=0 / nr=0 / decimate=1 / interlaced=0 / bluray_compat=0 / constrained_intra=0 / bframes=3 / b_pyramid=2 / b_adapt=2 / b_bias=0 / direct=3 / weightb=1 / open_gop=0 / weightp=2 / keyint=250 / keyint_min=25 / scenecut=40 / intra_refresh=0 / rc_lookahead=60 / rc=2pass / mbtree=1 / bitrate=783 / ratetol=1.0 / qcomp=0.60 / qpmin=0 / qpmax=69 / qpstep=4 / cplxblur=20.0 / qblur=0.5 / vbv_maxrate=9500 / vbv_bufsize=6000 / nal_hrd=none / filler=0 / ip_ratio=1.40 / aq=3:0.80
Default : Yes
Forced : No

Audio
ID : 2
Format : AAC LC
Format/Info : Advanced Audio Codec Low Complexity
Codec ID : A_AAC-2
Duration : 24 min 2 s
Bit rate : 90.3 kb/s
Channel(s) : 2 channels
Channel layout : L R
Sampling rate : 48.0 kHz
Frame rate : 46.875 FPS (1024 SPF)
Compression mode : Lossy
Delay relative to video : 9 ms
Stream size : 15.5 MiB (10%)
Title : Pahe.in Encodes
Language : English
Default : No
Forced : No

Menu
00:00:00.000 : :Chapter 01
00:02:20.140 : :Chapter 02
00:12:00.853 : :Chapter 03
00:23:14.960 : :Chapter 04
00:24:01.039 : :Chapter 05

 

1080p.x265-BvS

 

Leave a Reply

Your email address will not be published. Required fields are marked *