Curon All Season | 720p & 1080p NF WEBRip x265-BvS

Curon

After 17 years, a woman returns home with her teenage twins. When she mysteriously vanishes, her children must reckon with a shadowy family legacy.

Links: HOMEPAGE – iMDB

Note: In Italian With English/French/German/Spanish Selectable Subtitles

DOWNLOAD

VIP (GOOGLE DRIVE)

This content is reserved for registered users. BUY A VIP MEMBERSHIP HERE and login to be able to see it.

FREE

NFO

WEBRip.x264-ION10

General
Nombre completo : D:\HDFRAEN62064\Curon.S01E01.WEBRip.x264-ION10.mp4
Formato : MPEG-4
Formato del perfil : Base Media
ID códec : isom (isom/iso2/avc1/mp41)
Tamaño de archivo : 461 MiB
Duración : 50 min 2 s
Tasa de bits general : 1 287 kb/s
Película : Curon.S01E01.WEBRip.x264-ION10
Fecha de codificación : UTC 2020-06-10 08:46:37
Fecha de etiquetado : UTC 2020-06-10 08:46:37
Aplicación de codifición : Lavf58.0.101
Comentarios : Curon.S01E01.WEBRip.x264-ION10

Vídeo
ID : 1
Formato : AVC
Formato/Info : Advanced Video Codec
Formato del perfil : [email protected]
Ajustes del formato : CABAC / 5 Ref Frames
Ajustes del formato, CABAC : Sí
Ajustes del formato, RefFrames : 5 fotogramas
ID códec : avc1
ID códec/Info : Advanced Video Coding
Duración : 50 min 2 s
Tasa de bits : 1 026 kb/s
Tasa de bits nominal : 1 100 kb/s
Ancho : 720 píxeles
Alto : 360 píxeles
Relación de aspecto : 2,000
Modo velocidad fotogramas : Constante
Velocidad de fotogramas : 24,000 FPS
Espacio de color : YUV
Submuestreo croma : 4:2:0
Profundidad bits : 8 bits
Tipo barrido : Progresivo
Bits/(píxel*fotograma) : 0.165
Tamaño de pista : 367 MiB (80%)
Título : Curon.S01E01.WEBRip.x264-ION10
Librería de codificación : x264 core 148 r2795M aaa9aa8
Opciones de codificación : cabac=1 / ref=5 / deblock=1:-1:-1 / analyse=0x3:0x113 / me=umh / subme=9 / psy=1 / psy_rd=1.00:0.15 / mixed_ref=1 / me_range=16 / chroma_me=1 / trellis=2 / 8x8dct=1 / cqm=0 / deadzone=21,11 / fast_pskip=1 / chroma_qp_offset=-3 / threads=24 / lookahead_threads=2 / sliced_threads=0 / nr=0 / decimate=1 / interlaced=0 / bluray_compat=0 / constrained_intra=0 / bframes=3 / b_pyramid=2 / b_adapt=2 / b_bias=0 / direct=3 / weightb=1 / open_gop=0 / weightp=2 / keyint=250 / keyint_min=24 / scenecut=40 / intra_refresh=0 / rc_lookahead=50 / rc=abr / mbtree=1 / bitrate=1100 / ratetol=1.0 / qcomp=0.60 / qpmin=0 / qpmax=69 / qpstep=4 / ip_ratio=1.40 / aq=1:1.00
Fecha de codificación : UTC 2020-06-10 08:46:37
Fecha de etiquetado : UTC 2020-06-10 08:46:37
Codec configuration box : avcC

Audio
ID : 2
Formato : AAC LC
Formato/Info : Advanced Audio Codec Low Complexity
ID códec : mp4a-40-2
Duración : 50 min 2 s
Duration_LastFrame : -11 ms
Tipo de tasa de bits : Constante
Tasa de bits : 256 kb/s
Canal(es) : 2 canales
ChannelLayout : L R
Velocidad de muestreo : 48,0 kHz
Velocidad de fotogramas : 46,875 FPS (1024 SPF)
Modo de compresión : Con pérdida
Tamaño de pista : 91,6 MiB (20%)
Título : Curon.S01E01.WEBRip.x264-ION10
Idioma : Italiano
Default : Sí
AlternateGroup/String : 1
Fecha de codificación : UTC 2020-06-10 08:46:37
Fecha de etiquetado : UTC 2020-06-10 08:46:37

720p.x265-BvS

General
Unique ID : 60133961522672841644236381885869312291 (0x2D3D6135240CB7CB7D3D635005C3C923)
Complete name : Curon.S01E01.720p.NF.WEB-DL.x265.mkv
Format : Matroska
Format version : Version 4
File size : 257 MiB
Duration : 50 min 2 s
Overall bit rate : 718 kb/s
Encoded date : UTC 2020-06-10 18:16:42
Writing application : mkvmerge v44.0.0 (‘Domino’) 64-bit
Writing library : libebml v1.3.10 + libmatroska v1.5.2

Video
ID : 1
Format : HEVC
Format/Info : High Efficiency Video Coding
Format profile : [email protected]@Main
Codec ID : V_MPEGH/ISO/HEVC
Duration : 50 min 2 s
Bit rate : 652 kb/s
Width : 1 280 pixels
Height : 720 pixels
Display aspect ratio : 16:9
Frame rate mode : Constant
Frame rate : 24.000 FPS
Color space : YUV
Chroma subsampling : 4:2:0
Bit depth : 8 bits
Bits/(Pixel*Frame) : 0.029
Stream size : 233 MiB (91%)
Default : Yes
Forced : No
Color range : Limited
Color primaries : BT.709
Transfer characteristics : BT.709
Matrix coefficients : BT.709

Audio
ID : 2
Format : AAC LC SBR
Format/Info : Advanced Audio Codec Low Complexity with Spectral Band Replication
Commercial name : HE-AAC
Format settings : Explicit
Codec ID : A_AAC-2
Duration : 50 min 2 s
Bit rate : 64.0 kb/s
Channel(s) : 2 channels
Channel layout : L R
Sampling rate : 48.0 kHz
Frame rate : 23.438 FPS (2048 SPF)
Compression mode : Lossy
Delay relative to video : -4 ms
Stream size : 22.9 MiB (9%)
Default : Yes
Forced : No

Text
ID : 3
Format : UTF-8
Codec ID : S_TEXT/UTF8
Codec ID/Info : UTF-8 Plain Text
Duration : 45 min 28 s
Bit rate : 30 b/s
Count of elements : 411
Stream size : 10.0 KiB (0%)
Default : Yes
Forced : No

General
Unique ID : 19766313829342398619931253612457060933 (0xEDEDA838656D3D22D698C7477D96A45)
Complete name : Curon S01E01 The Black Lake [1080p x265 10bit Joy].mkv
Format : Matroska
Format version : Version 4
File size : 562 MiB
Duration : 50 min 2 s
Overall bit rate : 1 570 kb/s
Movie name : Curon S01E01 The Black Lake [1080p x265 10bit Joy][UTR] Encoded date : UTC 2020-06-12 17:41:27
Writing application : mkvmerge v39.0.0 (‘In The Waiting Line’) 64-bit
Writing library : libebml v1.3.9 + libmatroska v1.5.2

Video
ID : 1
Format : HEVC
Format/Info : High Efficiency Video Coding
Format profile : Main [email protected]@Main
Codec ID : V_MPEGH/ISO/HEVC
Duration : 50 min 2 s
Bit rate : 1 201 kb/s
Width : 1 920 pixels
Height : 960 pixels
Display aspect ratio : 2.000
Frame rate mode : Constant
Frame rate : 24.000 FPS
Color space : YUV
Chroma subsampling : 4:2:0
Bit depth : 10 bits
Bits/(Pixel*Frame) : 0.027
Stream size : 430 MiB (77%)
Writing library : x265 3.2+9-971180b100f8:[Windows][MSVC 1923][64 bit] 10bit
Encoding settings : cpuid=1111039 / frame-threads=3 / numa-pools=8 / wpp / no-pmode / no-pme / no-psnr / ssim / log-level=2 / input-csp=1 / input-res=1920×960 / interlace=0 / total-frames=72055 / level-idc=0 / high-tier=1 / uhd-bd=0 / ref=3 / no-allow-non-conformance / no-repeat-headers / annexb / no-aud / no-hrd / info / hash=0 / no-temporal-layers / open-gop / min-keyint=24 / keyint=250 / gop-lookahead=0 / bframes=8 / b-adapt=2 / b-pyramid / bframe-bias=40 / rc-lookahead=80 / lookahead-slices=6 / scenecut=40 / radl=0 / no-splice / no-intra-refresh / ctu=64 / min-cu-size=8 / no-rect / no-amp / max-tu-size=32 / tu-inter-depth=1 / tu-intra-depth=1 / limit-tu=0 / rdoq-level=0 / dynamic-rd=0.00 / ssim-rd / signhide / no-tskip / nr-intra=0 / nr-inter=0 / constrained-intra / strong-intra-smoothing / max-merge=3 / limit-refs=1 / no-limit-modes / me=3 / subme=5 / merange=57 / temporal-mvp / no-frame-dup / no-hme / weightp / no-weightb / no-analyze-src-pics / deblock=0:0 / no-sao / no-sao-non-deblock / rd=3 / selective-sao=0 / early-skip / rskip / no-fast-intra / no-tskip-fast / no-cu-lossless / b-intra / splitrd-skip / rdpenalty=0 / psy-rd=0.00 / psy-rdoq=0.00 / no-rd-refine / no-lossless / cbqpoffs=0 / crqpoffs=0 / rc=abr / bitrate=1200 / qcomp=0.60 / qpstep=4 / stats-write=0 / stats-read=2 / cplxblur=20.0 / qblur=0.5 / vbv-maxrate=4000 / vbv-bufsize=8000 / vbv-init=0.9 / ipratio=1.40 / pbratio=1.30 / aq-mode=3 / aq-strength=0.30 / cutree / zone-count=0 / no-strict-cbr / qg-size=32 / no-rc-grain / qpmax=69 / qpmin=0 / no-const-vbv / sar=0 / overscan=0 / videoformat=5 / range=0 / colorprim=2 / transfer=2 / colormatrix=2 / chromaloc=0 / display-window=0 / cll=0,0 / min-luma=0 / max-luma=1023 / log2-max-poc-lsb=8 / vui-timing-info / vui-hrd-info / slices=1 / no-opt-qp-pps / no-opt-ref-list-length-pps / multi-pass-opt-rps / scenecut-bias=0.05 / no-opt-cu-delta-qp / no-aq-motion / no-hdr / no-hdr-opt / no-dhdr10-opt / no-idr-recovery-sei / analysis-load / analysis-reuse-level=10 / scale-factor=0 / refine-intra=0 / refine-inter=0 / refine-mv=1 / refine-ctu-distortion=0 / no-limit-sao / ctu-info=0 / no-lowpass-dct / refine-analysis-type=0 / copy-pic=1 / max-ausize-factor=1.0 / no-dynamic-refine / no-single-sei / no-hevc-aq / no-svt / no-field / qp-adaptation-range=1.00
Default : Yes
Forced : No

Audio #1
ID : 2
Format : AAC LC SBR
Format/Info : Advanced Audio Codec Low Complexity with Spectral Band Replication
Commercial name : HE-AAC
Format settings : Explicit
Codec ID : A_AAC-2
Duration : 50 min 2 s
Bit rate : 181 kb/s
Channel(s) : 6 channels
Channel layout : C L R Ls Rs LFE
Sampling rate : 48.0 kHz
Frame rate : 23.438 FPS (2048 SPF)
Compression mode : Lossy
Delay relative to video : 31 ms
Stream size : 64.9 MiB (12%)
Title : English
Language : English
Default : No
Forced : No

Audio #2
ID : 3
Format : AAC LC SBR
Format/Info : Advanced Audio Codec Low Complexity with Spectral Band Replication
Commercial name : HE-AAC
Format settings : Explicit
Codec ID : A_AAC-2
Duration : 50 min 2 s
Bit rate : 183 kb/s
Channel(s) : 6 channels
Channel layout : C L R Ls Rs LFE
Sampling rate : 48.0 kHz
Frame rate : 23.438 FPS (2048 SPF)
Compression mode : Lossy
Delay relative to video : 31 ms
Stream size : 65.4 MiB (12%)
Title : Italian
Language : Italian
Default : No
Forced : No

Text #1
ID : 4
Format : UTF-8
Codec ID : S_TEXT/UTF8
Codec ID/Info : UTF-8 Plain Text
Duration : 45 min 28 s
Bit rate : 30 b/s
Count of elements : 411
Stream size : 10.0 KiB (0%)
Title : English
Language : English
Default : No
Forced : No

Text #2
ID : 5
Format : UTF-8
Codec ID : S_TEXT/UTF8
Codec ID/Info : UTF-8 Plain Text
Duration : 48 min 59 s
Bit rate : 54 b/s
Count of elements : 431
Stream size : 19.5 KiB (0%)
Title : Arabic
Language : Arabic
Default : No
Forced : No

Text #3
ID : 6
Format : UTF-8
Codec ID : S_TEXT/UTF8
Codec ID/Info : UTF-8 Plain Text
Duration : 48 min 59 s
Bit rate : 32 b/s
Count of elements : 431
Stream size : 11.7 KiB (0%)
Title : Chinese Simplified
Language : Chinese
Default : No
Forced : No

Text #4
ID : 7
Format : UTF-8
Codec ID : S_TEXT/UTF8
Codec ID/Info : UTF-8 Plain Text
Duration : 48 min 59 s
Bit rate : 30 b/s
Count of elements : 430
Stream size : 10.8 KiB (0%)
Title : Chinese Traditional
Language : Chinese
Default : No
Forced : No

Text #5
ID : 8
Format : UTF-8
Codec ID : S_TEXT/UTF8
Codec ID/Info : UTF-8 Plain Text
Duration : 48 min 59 s
Bit rate : 25 b/s
Count of elements : 431
Stream size : 9.04 KiB (0%)
Title : Czech
Language : Czech
Default : No
Forced : No

Text #6
ID : 9
Format : UTF-8
Codec ID : S_TEXT/UTF8
Codec ID/Info : UTF-8 Plain Text
Duration : 48 min 59 s
Bit rate : 25 b/s
Count of elements : 427
Stream size : 9.31 KiB (0%)
Title : Danish
Language : Danish
Default : No
Forced : No

Text #7
ID : 10
Format : UTF-8
Codec ID : S_TEXT/UTF8
Codec ID/Info : UTF-8 Plain Text
Duration : 48 min 59 s
Bit rate : 25 b/s
Count of elements : 409
Stream size : 9.04 KiB (0%)
Title : Dutch
Language : Dutch
Default : No
Forced : No

Text #8
ID : 11
Format : UTF-8
Codec ID : S_TEXT/UTF8
Codec ID/Info : UTF-8 Plain Text
Duration : 48 min 59 s
Bit rate : 25 b/s
Count of elements : 431
Stream size : 9.16 KiB (0%)
Title : Finnish
Language : Finnish
Default : No
Forced : No

Text #9
ID : 12
Format : UTF-8
Codec ID : S_TEXT/UTF8
Codec ID/Info : UTF-8 Plain Text
Duration : 48 min 59 s
Bit rate : 26 b/s
Count of elements : 429
Stream size : 9.63 KiB (0%)
Title : French
Language : French
Default : No
Forced : No

Text #10
ID : 13
Format : UTF-8
Codec ID : S_TEXT/UTF8
Codec ID/Info : UTF-8 Plain Text
Duration : 48 min 59 s
Bit rate : 26 b/s
Count of elements : 427
Stream size : 9.41 KiB (0%)
Title : German
Language : German
Default : No
Forced : No

Text #11
ID : 14
Format : UTF-8
Codec ID : S_TEXT/UTF8
Codec ID/Info : UTF-8 Plain Text
Duration : 48 min 59 s
Bit rate : 45 b/s
Count of elements : 431
Stream size : 16.3 KiB (0%)
Title : Greek
Language : Greek
Default : No
Forced : No

Text #12
ID : 15
Format : UTF-8
Codec ID : S_TEXT/UTF8
Codec ID/Info : UTF-8 Plain Text
Duration : 48 min 59 s
Bit rate : 43 b/s
Count of elements : 431
Stream size : 15.5 KiB (0%)
Title : Hebrew
Language : Hebrew
Default : No
Forced : No

Text #13
ID : 16
Format : UTF-8
Codec ID : S_TEXT/UTF8
Codec ID/Info : UTF-8 Plain Text
Duration : 48 min 59 s
Bit rate : 25 b/s
Count of elements : 426
Stream size : 9.08 KiB (0%)
Title : Hungarian
Language : Hungarian
Default : No
Forced : No

Text #14
ID : 17
Format : UTF-8
Codec ID : S_TEXT/UTF8
Codec ID/Info : UTF-8 Plain Text
Duration : 48 min 59 s
Bit rate : 26 b/s
Count of elements : 431
Stream size : 9.56 KiB (0%)
Title : Indonesian
Language : Indonesian
Default : No
Forced : No

Text #15
ID : 18
Format : UTF-8
Codec ID : S_TEXT/UTF8
Codec ID/Info : UTF-8 Plain Text
Duration : 45 min 37 s
Bit rate : 38 b/s
Count of elements : 534
Stream size : 13.0 KiB (0%)
Title : Italian
Language : Italian
Default : No
Forced : No

Text #16
ID : 19
Format : UTF-8
Codec ID : S_TEXT/UTF8
Codec ID/Info : UTF-8 Plain Text
Duration : 48 min 59 s
Bit rate : 28 b/s
Count of elements : 401
Stream size : 10.1 KiB (0%)
Title : Japanese
Language : Japanese
Default : No
Forced : No

Text #17
ID : 20
Format : UTF-8
Codec ID : S_TEXT/UTF8
Codec ID/Info : UTF-8 Plain Text
Duration : 48 min 59 s
Bit rate : 36 b/s
Count of elements : 431
Stream size : 13.2 KiB (0%)
Title : Korean
Language : Korean
Default : No
Forced : No

Text #18
ID : 21
Format : UTF-8
Codec ID : S_TEXT/UTF8
Codec ID/Info : UTF-8 Plain Text
Duration : 48 min 59 s
Bit rate : 27 b/s
Count of elements : 427
Stream size : 9.74 KiB (0%)
Title : Norwegian Bokmal
Language : Norwegian Bokmal
Default : No
Forced : No

Text #19
ID : 22
Format : UTF-8
Codec ID : S_TEXT/UTF8
Codec ID/Info : UTF-8 Plain Text
Duration : 48 min 59 s
Bit rate : 25 b/s
Count of elements : 430
Stream size : 9.23 KiB (0%)
Title : Polish
Language : Polish
Default : No
Forced : No

Text #20
ID : 23
Format : UTF-8
Codec ID : S_TEXT/UTF8
Codec ID/Info : UTF-8 Plain Text
Duration : 48 min 59 s
Bit rate : 27 b/s
Count of elements : 431
Stream size : 9.73 KiB (0%)
Title : Portuguese
Language : Portuguese
Default : No
Forced : No

Text #21
ID : 24
Format : UTF-8
Codec ID : S_TEXT/UTF8
Codec ID/Info : UTF-8 Plain Text
Duration : 48 min 59 s
Bit rate : 26 b/s
Count of elements : 428
Stream size : 9.63 KiB (0%)
Title : Brazilian Portuguese
Language : Portuguese
Default : No
Forced : No

Text #22
ID : 25
Format : UTF-8
Codec ID : S_TEXT/UTF8
Codec ID/Info : UTF-8 Plain Text
Duration : 48 min 59 s
Bit rate : 31 b/s
Count of elements : 430
Stream size : 11.2 KiB (0%)
Title : Romanian
Language : Romanian
Default : No
Forced : No

Text #23
ID : 26
Format : UTF-8
Codec ID : S_TEXT/UTF8
Codec ID/Info : UTF-8 Plain Text
Duration : 45 min 28 s
Bit rate : 44 b/s
Count of elements : 430
Stream size : 14.9 KiB (0%)
Title : Russian
Language : Russian
Default : No
Forced : No

Text #24
ID : 27
Format : UTF-8
Codec ID : S_TEXT/UTF8
Codec ID/Info : UTF-8 Plain Text
Duration : 48 min 59 s
Bit rate : 27 b/s
Count of elements : 431
Stream size : 10.0 KiB (0%)
Title : Spanish
Language : Spanish
Default : No
Forced : No

Text #25
ID : 28
Format : UTF-8
Codec ID : S_TEXT/UTF8
Codec ID/Info : UTF-8 Plain Text
Duration : 48 min 59 s
Bit rate : 28 b/s
Count of elements : 430
Stream size : 10.2 KiB (0%)
Title : European Spanish
Language : Spanish
Default : No
Forced : No

Text #26
ID : 29
Format : UTF-8
Codec ID : S_TEXT/UTF8
Codec ID/Info : UTF-8 Plain Text
Duration : 48 min 59 s
Bit rate : 26 b/s
Count of elements : 431
Stream size : 9.68 KiB (0%)
Title : Swedish
Language : Swedish
Default : No
Forced : No

Text #27
ID : 30
Format : UTF-8
Codec ID : S_TEXT/UTF8
Codec ID/Info : UTF-8 Plain Text
Duration : 48 min 59 s
Bit rate : 70 b/s
Count of elements : 431
Stream size : 25.2 KiB (0%)
Title : Thai
Language : Thai
Default : No
Forced : No

Text #28
ID : 31
Format : UTF-8
Codec ID : S_TEXT/UTF8
Codec ID/Info : UTF-8 Plain Text
Duration : 48 min 59 s
Bit rate : 26 b/s
Count of elements : 431
Stream size : 9.64 KiB (0%)
Title : Turkish
Language : Turkish
Default : No
Forced : No

Text #29
ID : 32
Format : UTF-8
Codec ID : S_TEXT/UTF8
Codec ID/Info : UTF-8 Plain Text
Duration : 45 min 28 s
Bit rate : 40 b/s
Count of elements : 430
Stream size : 13.6 KiB (0%)
Title : Vietnamese
Language : Vietnamese
Default : No
Forced : No

 

1080p.x265-BvS

 

[/su_spoiler

Leave a Reply

Your email address will not be published. Required fields are marked *