Criminal - France All Season | 720p & 1080p NF WEBRip x265-BvS

Criminal - France

Psychological games abound as detectives and suspects face off in a police interview room in Paris.

Links: HOMEPAGE – iMDB

Note: In French with Subtitles English/Spanish/German

DOWNLOAD

VIP (GOOGLE DRIVE)

This content is reserved for registered users. BUY A VIP MEMBERSHIP HERE and login to be able to see it.

FREE

  • SEASON 1: 720p x265-BvS (ONLY VIP)

NFO

WEBRip.x264-ION10

 

720p.x265-BvS

General
Unique ID : 72420046634191816744877270084010125863 (0x367B97F8B4359DFA9142E67399202A27)
Complete name : Criminal.France.S01E01.Émilie.FRENCH.720p.WEBRip.2CH.x265.HEVC.mkv
Format : Matroska
Format version : Version 4
File size : 179 MiB
Duration : 39 min 44 s
Overall bit rate : 629 kb/s
Movie name : Criminal.France.S01E01.Émilie.720p.WEBRip.2CH.x265.HEVC-PSA
Encoded date : UTC 2019-09-21 19:56:24
Writing application : mkvmerge v37.0.0 (‘Leave It’) 64-bit
Writing library : libebml v1.3.9 + libmatroska v1.5.2 / Lavf57.83.100

Video
ID : 1
Format : HEVC
Format/Info : High Efficiency Video Coding
Format profile : [email protected]@Main
Codec ID : V_MPEGH/ISO/HEVC
Duration : 39 min 43 s
Bit rate : 556 kb/s
Width : 1 280 pixels
Height : 720 pixels
Display aspect ratio : 16:9
Frame rate mode : Constant
Frame rate : 25.000 FPS
Color space : YUV
Chroma subsampling : 4:2:0
Bit depth : 8 bits
Bits/(Pixel*Frame) : 0.024
Stream size : 158 MiB (88%)
Default : Yes
Forced : No

Audio
ID : 2
Format : AAC LC SBR
Format/Info : Advanced Audio Codec Low Complexity with Spectral Band Replication
Commercial name : HE-AAC
Format settings : Explicit
Codec ID : A_AAC-2
Duration : 39 min 44 s
Bit rate : 67.8 kb/s
Channel(s) : 2 channels
Channel layout : L R
Sampling rate : 48.0 kHz
Frame rate : 23.438 FPS (2048 SPF)
Compression mode : Lossy
Delay relative to video : 23 ms
Stream size : 19.3 MiB (11%)
Language : French
Default : Yes
Forced : No

Text #1
ID : 3
Format : UTF-8
Codec ID : S_TEXT/UTF8
Codec ID/Info : UTF-8 Plain Text
Duration : 39 min 6 s
Bit rate : 68 b/s
Count of elements : 614
Stream size : 19.7 KiB (0%)
Title : English
Language : English
Default : No
Forced : No

Text #2
ID : 4
Format : UTF-8
Codec ID : S_TEXT/UTF8
Codec ID/Info : UTF-8 Plain Text
Duration : 37 min 58 s
Bit rate : 84 b/s
Count of elements : 664
Stream size : 23.5 KiB (0%)
Title : English
Language : English
Default : No
Forced : No

Text #3
ID : 5
Format : UTF-8
Codec ID : S_TEXT/UTF8
Codec ID/Info : UTF-8 Plain Text
Duration : 39 min 6 s
Bit rate : 112 b/s
Count of elements : 605
Stream size : 32.3 KiB (0%)
Title : Russian
Language : English
Default : No
Forced : No

Text #4
ID : 6
Format : UTF-8
Codec ID : S_TEXT/UTF8
Codec ID/Info : UTF-8 Plain Text
Duration : 39 min 7 s
Bit rate : 72 b/s
Count of elements : 571
Stream size : 20.8 KiB (0%)
Title : German
Language : German
Default : No
Forced : No

Text #5
ID : 7
Format : UTF-8
Codec ID : S_TEXT/UTF8
Codec ID/Info : UTF-8 Plain Text
Duration : 39 min 6 s
Bit rate : 67 b/s
Count of elements : 465
Stream size : 19.4 KiB (0%)
Title : Dutch
Language : Dutch
Default : No
Forced : No

Text #6
ID : 8
Format : UTF-8
Codec ID : S_TEXT/UTF8
Codec ID/Info : UTF-8 Plain Text
Duration : 39 min 7 s
Bit rate : 69 b/s
Count of elements : 605
Stream size : 19.9 KiB (0%)
Title : Italian
Language : Italian
Default : No
Forced : No

Text #7
ID : 9
Format : UTF-8
Codec ID : S_TEXT/UTF8
Codec ID/Info : UTF-8 Plain Text
Duration : 39 min 4 s
Bit rate : 67 b/s
Count of elements : 480
Stream size : 19.3 KiB (0%)
Title : Finnish
Language : Finnish
Default : No
Forced : No

Text #8
ID : 10
Format : UTF-8
Codec ID : S_TEXT/UTF8
Codec ID/Info : UTF-8 Plain Text
Duration : 39 min 6 s
Bit rate : 66 b/s
Count of elements : 614
Stream size : 19.1 KiB (0%)
Title : Hungarian
Language : English
Default : No
Forced : No

Text #9
ID : 11
Format : UTF-8
Codec ID : S_TEXT/UTF8
Codec ID/Info : UTF-8 Plain Text
Duration : 37 min 58 s
Bit rate : 130 b/s
Count of elements : 577
Stream size : 36.3 KiB (0%)
Title : Greek
Language : English
Default : No
Forced : No

Text #10
ID : 12
Format : UTF-8
Codec ID : S_TEXT/UTF8
Codec ID/Info : UTF-8 Plain Text
Duration : 39 min 6 s
Bit rate : 64 b/s
Count of elements : 614
Stream size : 18.4 KiB (0%)
Title : Czech
Language : Czech
Default : No
Forced : No

Text #11
ID : 13
Format : UTF-8
Codec ID : S_TEXT/UTF8
Codec ID/Info : UTF-8 Plain Text
Duration : 39 min 6 s
Bit rate : 73 b/s
Count of elements : 600
Stream size : 20.9 KiB (0%)
Title : European Spanish
Language : Spanish
Default : No
Forced : No

Text #12
ID : 14
Format : UTF-8
Codec ID : S_TEXT/UTF8
Codec ID/Info : UTF-8 Plain Text
Duration : 39 min 6 s
Bit rate : 61 b/s
Count of elements : 608
Stream size : 17.7 KiB (0%)
Title : Brazilian Portuguese
Language : Portuguese
Default : No
Forced : No

Text #13
ID : 15
Format : UTF-8
Codec ID : S_TEXT/UTF8
Codec ID/Info : UTF-8 Plain Text
Duration : 39 min 6 s
Bit rate : 69 b/s
Count of elements : 604
Stream size : 19.9 KiB (0%)
Title : Spanish
Language : Spanish
Default : No
Forced : No

Text #14
ID : 16
Format : UTF-8
Codec ID : S_TEXT/UTF8
Codec ID/Info : UTF-8 Plain Text
Duration : 37 min 55 s
Bit rate : 74 b/s
Count of elements : 600
Stream size : 20.7 KiB (0%)
Title : Turkish
Language : Turkish
Default : No
Forced : No

Text #15
ID : 17
Format : UTF-8
Codec ID : S_TEXT/UTF8
Codec ID/Info : UTF-8 Plain Text
Duration : 39 min 6 s
Bit rate : 69 b/s
Count of elements : 614
Stream size : 19.8 KiB (0%)
Title : Portuguese
Language : Portuguese
Default : No
Forced : No

Text #16
ID : 18
Format : UTF-8
Codec ID : S_TEXT/UTF8
Codec ID/Info : UTF-8 Plain Text
Duration : 39 min 4 s
Bit rate : 71 b/s
Count of elements : 479
Stream size : 20.5 KiB (0%)
Title : Swedish
Language : Swedish
Default : No
Forced : No

Text #17
ID : 19
Format : UTF-8
Codec ID : S_TEXT/UTF8
Codec ID/Info : UTF-8 Plain Text
Duration : 39 min 6 s
Bit rate : 59 b/s
Count of elements : 609
Stream size : 17.1 KiB (0%)
Title : Polish
Language : Polish
Default : No
Forced : No

Text #18
ID : 20
Format : UTF-8
Codec ID : S_TEXT/UTF8
Codec ID/Info : UTF-8 Plain Text
Duration : 39 min 4 s
Bit rate : 70 b/s
Count of elements : 479
Stream size : 20.1 KiB (0%)
Title : Norwegian
Language : Norwegian
Default : No
Forced : No

Text #19
ID : 21
Format : UTF-8
Codec ID : S_TEXT/UTF8
Codec ID/Info : UTF-8 Plain Text
Duration : 39 min 6 s
Bit rate : 64 b/s
Count of elements : 614
Stream size : 18.5 KiB (0%)
Title : Indonesian
Language : English
Default : No
Forced : No

Text #20
ID : 22
Format : UTF-8
Codec ID : S_TEXT/UTF8
Codec ID/Info : UTF-8 Plain Text
Duration : 39 min 4 s
Bit rate : 69 b/s
Count of elements : 481
Stream size : 19.8 KiB (0%)
Title : Danish
Language : Danish
Default : No
Forced : No

Text #21
ID : 23
Format : UTF-8
Codec ID : S_TEXT/UTF8
Codec ID/Info : UTF-8 Plain Text
Duration : 38 min 57 s
Bit rate : 90 b/s
Count of elements : 665
Stream size : 25.7 KiB (0%)
Title : French
Language : French
Default : No
Forced : No

1080p.x265-BvS

 

Leave a Reply

Your email address will not be published. Required fields are marked *