Courage The Cowardly Dog All Season | 720p & 1080p HMAX WEBRip x265-BvS

This show is about a dog named Courage that was found by Muriel Bagge who lives on a farm in the middle of Nowhere with her husband Eustace Bagge. Eustace dislikes Courage and calls him “Stupid Dog”. Muriel on the other hand is different from Eustace and loves Courage. But, weird things happen in Nowhere and it’s now up to Courage to save them.

Links: HOMEPAGE – TV.com

Note: In English with English Selectable Subtitles

DOWNLOAD

VIP (GOOGLE DRIVE)

This content is reserved for registered users. BUY A VIP MEMBERSHIP HERE and login to be able to see it.

FREE

  • SEASON 1: DVD x265 (ONLY VIP)
  • SEASON 2: DVD x265 (ONLY VIP)
  • SEASON 3: DVD x265 (ONLY VIP)
  • SEASON 4: DVD x265 (ONLY VIP)

NFO

DVD.x265

General
Unique ID : 203396478598930368253234726083714036807 (0x9904BCA39F000195E8F47C31ED1F3447)
Complete name : Courage the Cowardly Dog (1999) – S01E01 – A Night at the Katz Motel (480p DVD x265 Ghost).mkv
Format : Matroska
Format version : Version 4
File size : 104 MiB
Duration : 11 min 14 s
Overall bit rate : 1 296 kb/s
Movie name : COURAGE THE COWARDLY DOG SEASON 1 DISC 1
Encoded date : UTC 2019-08-13 02:59:12
Writing application : mkvmerge v30.1.0 (‘Forever And More’) 64-bit
Writing library : libebml v1.3.6 + libmatroska v1.4.9
Writing frontend : StaxRip v1.7.0.6

Video
ID : 1
Format : HEVC
Format/Info : High Efficiency Video Coding
Format profile : Main [email protected]@Main
Codec ID : V_MPEGH/ISO/HEVC
Duration : 11 min 14 s
Bit rate : 1 101 kb/s
Width : 706 pixels
Height : 478 pixels
Display aspect ratio : 4:3
Original display aspect ratio : 4:3
Frame rate mode : Constant
Frame rate : 23.976 (24000/1001) FPS
Color space : YUV
Chroma subsampling : 4:2:0
Bit depth : 10 bits
Bits/(Pixel*Frame) : 0.136
Stream size : 88.4 MiB (85%)
Writing library : x265 3.0+2-ge71f790de+23:[Windows][GCC 8.2.1][64 bit] Yuuki 10bit
Encoding settings : rc=abr / bitrate=1100 / qcomp=0.60 / qpstep=4 / stats-write=0 / stats-read=2 / cplxblur=20.0 / qblur=0.5 / no-lossless / no-cu-lossless / aq-mode=3 / aq-strength=0.80 / cbqpoffs=0 / crqpoffs=0 / ipratio=1.40 / pbratio=1.30 / psy-rd=2.00 / psy-rdoq=1.70 / deblock=-3:-3 / ref=4 / limit-refs=3 / limit-modes / bframes=8 / b-adapt=2 / bframe-bias=0 / b-pyramid / no-b-intra / weightp / no-weightb / min-keyint=23 / max-keyint=250 / rc-lookahead=80 / gop-lookahead=0 / scenecut=40 / radl=0 / max-cu-size=64 / min-cu-size=8 / me=3 / subme=5 / merange=57 / rdoq-level=2 / rd=4 / rdpenalty=0 / dynamic-rd=0.00 / no-rd-refine / —– / cutree / no-sao / no-rect / no-amp / open-gop / wpp / no-pmode / no-pme / no-psnr / no-ssim / nr-intra=0 / nr-inter=0 / no-constrained-intra / no-strong-intra-smoothing / max-tu-size=32 / tu-inter-depth=1 / tu-intra-depth=1 / limit-tu=0 / qg-size=32 / qpmax=69 / qpmin=0 / —– / cpuid=1049583 / frame-threads=3 / numa-pools=8 / log-level=2 / input-csp=1 / input-res=706×478 / interlace=0 / level-idc=0 / high-tier=1 / uhd-bd=0 / no-allow-non-conformance / no-repeat-headers / no-aud / no-hrd / info / hash=0 / no-temporal-layers / lookahead-slices=0 / no-splice / no-intra-refresh / no-ssim-rd / signhide / no-tskip / max-merge=3 / temporal-mvp / no-analyze-src-pics / no-sao-non-deblock / no-early-skip / rskip / no-fast-intra / no-tskip-fast / no-splitrd-skip / zone-count=0 / no-strict-cbr / no-rc-grain / no-const-vbv / sar=3 / overscan=0 / videoformat=5 / range=0 / colorprim=2 / transfer=2 / colormatrix=2 / chromaloc=0 / display-window=0 / max-cll=0,0 / min-luma=0 / max-luma=1023 / log2-max-poc-lsb=8 / vui-timing-info / vui-hrd-info / slices=1 / no-opt-qp-pps / no-opt-ref-list-length-pps / no-multi-pass-opt-rps / scenecut-bias=0.05 / no-opt-cu-delta-qp / no-aq-motion / no-hdr / no-hdr-opt / no-dhdr10-opt / no-idr-recovery-sei / analysis-reuse-level=5 / scale-factor=0 / refine-intra=0 / refine-inter=0 / refine-mv=0 / refine-ctu-distortion=0 / no-limit-sao / ctu-info=0 / no-lowpass-dct / refine-analysis-type=0 / copy-pic=1 / max-ausize-factor=1.0 / no-dynamic-refine / no-single-sei / no-hevc-aq / qp-adaptation-range=1.00
Default : Yes
Forced : No

Audio
ID : 2
Format : AAC LC
Format/Info : Advanced Audio Codec Low Complexity
Codec ID : A_AAC-2
Duration : 11 min 14 s
Bit rate : 192 kb/s
Channel(s) : 2 channels
Channel layout : L R
Sampling rate : 48.0 kHz
Frame rate : 46.875 FPS (1024 SPF)
Compression mode : Lossy
Delay relative to video : 20 ms
Stream size : 15.4 MiB (15%)
Language : English
Default : Yes
Forced : No

Text
ID : 3
Format : VobSub
Muxing mode : zlib
Codec ID : S_VOBSUB
Codec ID/Info : Picture based subtitle format used on DVDs
Duration : 11 min 7 s
Bit rate : 3 305 b/s
Count of elements : 101
Stream size : 269 KiB (0%)
Title : English
Language : English
Default : No
Forced : No

Menu
00:00:00.000 : en:Chapter 01
00:00:31.614 : en:Chapter 02

 

720p.x265-BvS

 

1080p.x265-BvS

 

Leave a Reply

Your email address will not be published. Required fields are marked *