Count Duckula All Season | 720p & 1080p AMZN WEBRip x265-BvS

This is a very clever cartoon from Cosgrove-Hall, the same group that produced Dangermouse. It is about a vampire duck that, due to a mishap during the re-animation process, is now a vegetarian. He uses a special machine in his castle to transport it to different places in search of treasure, money, and fame as a musician. He is accompanied by Igor, the family butler, who is a believer in the Old Ways of being a vampire. He is disappointed that the Count is not as evil as the old Count used to be. Also in the castle is Nanny, the nursemaid. She is big and dimwitted. Duckula is constantly being hunted by Dr. Von Goosewing, a vampire hunter.

Links: HOMEPAGE – TV.com

Note: In English with English Selectable Subtitles

DOWNLOAD

VIP (GOOGLE DRIVE)

This content is reserved for registered users. BUY A VIP MEMBERSHIP HERE and login to be able to see it.

FREE

  • SEASON 1: WEBRip x264 (ONLY VIP)
  • SEASON 2: WEBRip x264 (ONLY VIP)
  • SEASON 3: WEBRip x264 (ONLY VIP)

NFO

WEBRip.x264

General
Complete name : CD S1 Ep01 No Sax Please We are Egyptian.mp4
Format : MPEG-4
Format profile : Base Media / Version 2
Codec ID : mp42 (mp42/isom/avc1)
File size : 194 MiB
Duration : 22 min 39 s
Overall bit rate : 1 194 kb/s
Encoded date : UTC 2013-11-15 18:10:59
Tagged date : UTC 2013-11-15 18:15:33
Writing application : HandBrake 0.9.8 2012071700

Video
ID : 1
Format : AVC
Format/Info : Advanced Video Codec
Format profile : [email protected]
Format settings : CABAC / 4 Ref Frames
Format settings, CABAC : Yes
Format settings, Reference frames : 4 frames
Codec ID : avc1
Codec ID/Info : Advanced Video Coding
Duration : 22 min 39 s
Bit rate : 1 000 kb/s
Width : 702 pixels
Height : 574 pixels
Display aspect ratio : 4:3
Frame rate mode : Constant
Frame rate : 25.000 FPS
Color space : YUV
Chroma subsampling : 4:2:0
Bit depth : 8 bits
Scan type : Progressive
Bits/(Pixel*Frame) : 0.099
Stream size : 162 MiB (84%)
Writing library : x264 core 120
Encoding settings : cabac=1 / ref=1 / deblock=1:0:0 / analyse=0x1:0x111 / me=hex / subme=2 / psy=1 / psy_rd=1.00:0.00 / mixed_ref=0 / me_range=16 / chroma_me=1 / trellis=0 / 8x8dct=0 / cqm=0 / deadzone=21,11 / fast_pskip=1 / chroma_qp_offset=0 / threads=3 / sliced_threads=0 / nr=0 / decimate=1 / interlaced=0 / bluray_compat=0 / constrained_intra=0 / bframes=3 / b_pyramid=2 / b_adapt=1 / b_bias=0 / direct=1 / weightb=1 / open_gop=0 / weightp=1 / keyint=250 / keyint_min=25 / scenecut=40 / intra_refresh=0 / rc_lookahead=10 / rc=2pass / mbtree=1 / bitrate=1000 / ratetol=1.0 / qcomp=0.60 / qpmin=3 / qpmax=69 / qpstep=4 / cplxblur=20.0 / qblur=0.5 / ip_ratio=1.40 / aq=1:1.00
Encoded date : UTC 2013-11-15 18:10:59
Tagged date : UTC 2013-11-15 18:15:33
Color range : Limited
Color primaries : BT.601 NTSC
Transfer characteristics : BT.709
Matrix coefficients : BT.601
Codec configuration box : avcC

Audio
ID : 2
Format : AC-3
Format/Info : Audio Coding 3
Commercial name : Dolby Digital
Codec ID : ac-3
Duration : 22 min 39 s
Bit rate mode : Constant
Bit rate : 192 kb/s
Channel(s) : 2 channels
Channel layout : L R
Sampling rate : 48.0 kHz
Frame rate : 31.250 FPS (1536 SPF)
Compression mode : Lossy
Stream size : 31.1 MiB (16%)
Title : Surround
Language : English
Service kind : Complete Main
Encoded date : UTC 2013-11-15 18:10:59
Tagged date : UTC 2013-11-15 18:15:33

720p.x265-BvS

 

1080p.x265-BvS

 

Leave a Reply

Your email address will not be published. Required fields are marked *