Breaking Bad All Season | 720p & 1080p Bluray x265-BvS

Breaking Bad

When Walter White, a chemistry teacher, is diagnosed with Stage III cancer and given a prognosis of two years left to live, he chooses to enter a dangerous world of drugs and crime with the intent to secure his family’s financial security.

Links: HOMEPAGE – TV.com

Note: In English with English Selectable Subtitles

DOWNLOAD

VIP (GOOGLE DRIVE)

This content is reserved for registered users. BUY A VIP MEMBERSHIP HERE and login to be able to see it.

FREE

  • SEASON 1: 720p x265 (ONLY VIP)
  • SEASON 2: 720p x265 (ONLY VIP)
  • SEASON 3: 720p x265 (ONLY VIP)
  • SEASON 4: 720p x265 (ONLY VIP)
  • SEASON 5: 720p x265 (ONLY VIP)

NFO

WEBRip.x264-ION10

 

720p.x265-BvS

General
Unique ID : 50104752837845580343983359303378116847 (0x25B1D30ADF6328ABDBC2B7E02AE9A0EF)
Complete name : Breaking.Bad.S01E01.Pilot.720p.10bit.BluRay.2CH.x265.HEVC.mkv
Format : Matroska
Format version : Version 4
File size : 374 MiB
Duration : 58 min 6 s
Overall bit rate : 899 kb/s
Movie name : PSArips.com | Breaking.Bad.S01E01.Pilot.720p.10bit.BluRay.2CH.x265.HEVC-PSA
Encoded date : UTC 2020-04-28 14:36:59
Writing application : mkvmerge v45.0.0 (‘Heaven in Pennies’) 64-bit
Writing library : libebml v1.3.10 + libmatroska v1.5.2

Video
ID : 1
Format : HEVC
Format/Info : High Efficiency Video Coding
Format profile : Main [email protected]@Main
Codec ID : V_MPEGH/ISO/HEVC
Duration : 58 min 6 s
Bit rate : 830 kb/s
Width : 1 280 pixels
Height : 720 pixels
Display aspect ratio : 16:9
Frame rate mode : Constant
Frame rate : 23.976 (24000/1001) FPS
Color space : YUV
Chroma subsampling : 4:2:0
Bit depth : 10 bits
Bits/(Pixel*Frame) : 0.038
Stream size : 345 MiB (92%)
Default : Yes
Forced : No
Color range : Limited
Color primaries : BT.709
Transfer characteristics : BT.709
Matrix coefficients : BT.709

Audio
ID : 2
Format : AAC LC SBR
Format/Info : Advanced Audio Codec Low Complexity with Spectral Band Replication
Commercial name : HE-AAC
Format settings : Explicit
Codec ID : A_AAC-2
Duration : 58 min 6 s
Bit rate : 66.2 kb/s
Channel(s) : 2 channels
Channel layout : L R
Sampling rate : 48.0 kHz
Frame rate : 23.438 FPS (2048 SPF)
Compression mode : Lossy
Delay relative to video : 23 ms
Stream size : 27.9 MiB (7%)
Language : English
Default : Yes
Forced : No

Text
ID : 3
Format : UTF-8
Codec ID : S_TEXT/UTF8
Codec ID/Info : UTF-8 Plain Text
Duration : 56 min 1 s
Bit rate : 46 b/s
Count of elements : 672
Stream size : 19.2 KiB (0%)
Language : English
Default : Yes
Forced : No

 

1080p.x265-BvS

 

Leave a Reply

Your email address will not be published. Required fields are marked *