Bodyguard All Season | 720p & 1080p AMZN WEBRip x265-BvS

After distinguishing himself by courageously neutralising a terrorist threat, troubled war veteran Police Sergeant David Budd of the Metropolitan Police’s Royalty and Specialist Protection Branch (RaSP) is assigned as a principal protection officer to the home secretary, the Rt Hon Julia Montague MP. Julia is a controversial politician intent on pushing a new counterterrorism bill through Parliament which would give the security service enhanced surveillance powers. Her political ambitions make Julia a high-profile target. Dedicated to his job but concealing deep resentment of politicians following his traumas in Helmand, David’s divided loyalties might make him Julia’s greatest threat.

Links: HOMEPAGE – TVM

Note: In English with English Selectable Subtitles

DOWNLOAD

VIP (GOOGLE DRIVE)

This content is reserved for registered users. BUY A VIP MEMBERSHIP HERE and login to be able to see it.

FREE

  • SEASON 1: 720p x265 (ONLY VIP)

NFO

WEBRip.x264-ION10

 

720p.x265-BvS

General
Unique ID : 30785731248080428700458684330020533696 (0x17291DBD1FC00DE0A4441BB783D975C0)
Complete name : Bodyguard.S01E01.720p.WEBRip.2CH.x265.HEVC.mkv
Format : Matroska
Format version : Version 4
File size : 252 MiB
Duration : 57 min 39 s
Overall bit rate : 611 kb/s
Movie name : Bodyguard.S01E01.720p.WEBRip.2CH.x265.HEVC-PSA
Encoded date : UTC 2018-09-09 10:04:54
Writing application : mkvmerge v23.0.0 (‘The Bride Said No’) 64-bit
Writing library : libebml v1.3.6 + libmatroska v1.4.9

Video
ID : 1
Format : HEVC
Format/Info : High Efficiency Video Coding
Format profile : [email protected]@Main
Codec ID : V_MPEGH/ISO/HEVC
Duration : 57 min 39 s
Bit rate : 543 kb/s
Width : 1 280 pixels
Height : 640 pixels
Display aspect ratio : 2.000
Frame rate mode : Constant
Frame rate : 25.000 FPS
Color space : YUV
Chroma subsampling : 4:2:0
Bit depth : 8 bits
Bits/(Pixel*Frame) : 0.027
Stream size : 224 MiB (89%)
Default : Yes
Forced : No

Audio
ID : 2
Format : AAC LC SBR
Format/Info : Advanced Audio Codec Low Complexity with Spectral Band Replication
Commercial name : HE-AAC
Format settings : Explicit
Codec ID : A_AAC-2
Duration : 57 min 38 s
Bit rate : 66.2 kb/s
Channel(s) : 2 channels
Channel layout : L R
Sampling rate : 48.0 kHz
Frame rate : 23.438 FPS (2048 SPF)
Compression mode : Lossy
Delay relative to video : 23 ms
Stream size : 27.1 MiB (11%)
Language : English
Default : Yes
Forced : No

Text
ID : 3
Format : UTF-8
Codec ID : S_TEXT/UTF8
Codec ID/Info : UTF-8 Plain Text
Duration : 56 min 36 s
Bit rate : 146 b/s
Count of elements : 759
Stream size : 60.7 KiB (0%)
Default : Yes
Forced : No

1080p.x265-BvS

 

Leave a Reply

Your email address will not be published. Required fields are marked *