Blood Drive All Season | 720p & 1080p AMZN WEBRip x265-BvS

Get uncomfortable! In the tradition of classic grindhouse movies, BLOOD DRIVE is a new series soaked in high-octane chaos and just barely approved for television. After Los Angeles’ last good cop is forced to join a twisted cross-country death race, his only hope of survival is a dangerous femme fatale who has the need for speed. Oh, and forget gasoline…these cars run on human blood!

Links: HOMEPAGE – TV.com

Note: In English with English Selectable Subtitles

DOWNLOAD

VIP (GOOGLE DRIVE)

This content is reserved for registered users. BUY A VIP MEMBERSHIP HERE and login to be able to see it.

FREE

  • SEASON 1: 720p x265 (ONLY VIP)

NFO

720p.x265-BvS

General
Unique ID : 226188735058895552828411968986092287449 (0xAA2A5DA4A133B5AC911916EDD1F235D9)
Complete name : Blood.Drive.S01E01.The.F-cking.Cop.720p.WEB-DL.2CH.x265.HEVC.mkv
Format : Matroska
Format version : Version 4
File size : 238 MiB
Duration : 44 min 33 s
Overall bit rate : 746 kb/s
Movie name : PSArips.com | Blood.Drive.S01E01.The.F-cking.Cop.720p.WEB-DL.2CH.x265.HEVC-PSA
Encoded date : UTC 2017-06-16 06:45:36
Writing application : mkvmerge v12.0.0 (‘Trust / Lust’) 64bit
Writing library : libebml v1.3.4 + libmatroska v1.4.5

Video
ID : 1
Format : HEVC
Format/Info : High Efficiency Video Coding
Format profile : [email protected]@Main
Codec ID : V_MPEGH/ISO/HEVC
Duration : 44 min 33 s
Bit rate : 676 kb/s
Width : 1 280 pixels
Height : 720 pixels
Display aspect ratio : 16:9
Frame rate mode : Constant
Frame rate : 23.976 (24000/1001) FPS
Color space : YUV
Chroma subsampling : 4:2:0
Bit depth : 8 bits
Bits/(Pixel*Frame) : 0.031
Stream size : 216 MiB (91%)
Default : Yes
Forced : No
Color range : Limited
Color primaries : BT.709
Transfer characteristics : BT.709
Matrix coefficients : BT.709

Audio
ID : 2
Format : AAC LC SBR
Format/Info : Advanced Audio Codec Low Complexity with Spectral Band Replication
Commercial name : HE-AAC
Format settings : Explicit
Codec ID : A_AAC-2
Duration : 44 min 33 s
Bit rate : 66.2 kb/s
Channel(s) : 2 channels
Channel layout : L R
Sampling rate : 48.0 kHz
Frame rate : 23.438 FPS (2048 SPF)
Compression mode : Lossy
Delay relative to video : 23 ms
Stream size : 21.4 MiB (9%)
Default : Yes
Forced : No

Text
ID : 3
Format : UTF-8
Codec ID : S_TEXT/UTF8
Codec ID/Info : UTF-8 Plain Text
Duration : 44 min 2 s
Bit rate : 73 b/s
Count of elements : 736
Stream size : 23.6 KiB (0%)
Default : Yes
Forced : No

Leave a Reply

Your email address will not be published. Required fields are marked *