Bless This Mess All Season | 720p & 1080p AMZN WEBRip x265-BvS

Newlyweds Rio and Mike make the decision to change the course of their life together and move from the relentless pace of big city New York to what they think will be a more relaxed existence in rural Nebraska. After dropping everything, including their jobs and an overbearing mother-in-law, to make the move from skyscrapers to farmhouses, they soon realize that the simpler life isn’t as easy as they had planned.

Links: HOMEPAGE – TV.Com

Note: In English with English Selectable Subtitles

DOWNLOAD

VIP (GOOGLE DRIVE)

This content is reserved for registered users. BUY A VIP MEMBERSHIP HERE and login to be able to see it.

FREE

  • SEASON 1: 720p x264 (ONLY VIP)
  • SEASON 2: 720p x265 (ONLY VIP)

NFO

WEBRip.x264-ION10

 

720p.x265-BvS

General
Unique ID : 70447084073981358231943382217907705193 (0x34FF9D68345A8A502B7AD19D7DCB1569)
Complete name : Bless.This.Mess.S02E01.459.720p.WEBRip.2CH.x265.HEVC.mkv
Format : Matroska
Format version : Version 4
File size : 129 MiB
Duration : 21 min 31 s
Overall bit rate : 839 kb/s
Movie name : Bless.This.Mess.S02E01.459.720p.WEBRip.2CH.x265.HEVC-PSA
Encoded date : UTC 2019-11-09 17:24:24
Writing application : mkvmerge v40.0.0 (‘Old Town Road + Pony’) 64-bit
Writing library : libebml v1.3.9 + libmatroska v1.5.2

Video
ID : 1
Format : HEVC
Format/Info : High Efficiency Video Coding
Format profile : [email protected]@Main
Codec ID : V_MPEGH/ISO/HEVC
Duration : 21 min 31 s
Bit rate : 777 kb/s
Width : 1 280 pixels
Height : 720 pixels
Display aspect ratio : 16:9
Frame rate mode : Constant
Frame rate : 23.976 (24000/1001) FPS
Color space : YUV
Chroma subsampling : 4:2:0
Bit depth : 8 bits
Bits/(Pixel*Frame) : 0.035
Stream size : 120 MiB (93%)
Default : Yes
Forced : No

Audio
ID : 2
Format : AAC LC SBR
Format/Info : Advanced Audio Codec Low Complexity with Spectral Band Replication
Commercial name : HE-AAC
Format settings : Explicit
Codec ID : A_AAC-2
Duration : 21 min 31 s
Bit rate : 60.0 kb/s
Channel(s) : 2 channels
Channel layout : L R
Sampling rate : 48.0 kHz
Frame rate : 23.438 FPS (2048 SPF)
Compression mode : Lossy
Delay relative to video : 23 ms
Stream size : 9.24 MiB (7%)
Language : English
Default : Yes
Forced : No

Text
ID : 3
Format : UTF-8
Codec ID : S_TEXT/UTF8
Codec ID/Info : UTF-8 Plain Text
Duration : 21 min 19 s
Bit rate : 135 b/s
Count of elements : 648
Stream size : 21.2 KiB (0%)
Language : English
Default : Yes
Forced : No

1080p.x265-BvS

 

Leave a Reply

Your email address will not be published. Required fields are marked *