Adventures Of The Gummi Bears All Season | DSNP WEBRip x264

Long ago, there was a thriving civilization of small humanoid bears called Gummi Bears. Possessing powerful magic and advanced technology, this race coexisted with humans until the growing rivalry forced the Gummis to flee across the sea, leaving only a small caretaker colony to prepare for a possible return. However, generations passed and the colony forgot their purpose even as human knowledge of the race faded into mere legend. All that changes when the colony meets a boy with a Gummi Bear medallion which unlocks the Great Book of Gummi which reveals lost knowledge of their past. Now the colony has dedicated themselves to the new goal to rediscover their heritage with the help of a few trusted humans while preventing new enemies like Duke Igthorn from exploiting that heritage to their own ends. Gummi Bears was part of what many consider Disney’s “Golden Age”.

Links: HOMEPAGE – iMDB

Note: In English/Dutch/Spanish with English Selectable Subtitles 

DOWNLOAD

VIP (GOOGLE DRIVE)

This content is reserved for registered users. BUY A VIP MEMBERSHIP HERE and login to be able to see it.

FREE

NFO

WEBRip.x264-ION10

General
Unique ID : 152949726664405694188446921028870885080 (0x73110BBD46D140A03435807438B04ED8)
Complete name : D.s.A.o.t.G.B.S01E01.SD.DSNP.WEB-DL.AAC.2.0.x264-forFun.mkv
Format : Matroska
Format version : Version 4
File size : 258 MiB
Duration : 22 min 53 s
Overall bit rate mode : Variable
Overall bit rate : 1 577 kb/s
Encoded date : UTC 2020-02-08 12:12:49
Writing application : mkvmerge v25.0.0 (‘Prog Noir’) 32-bit
Writing library : libebml v1.3.6 + libmatroska v1.4.9

Video
ID : 1
Format : AVC
Format/Info : Advanced Video Codec
Format profile : [email protected]
Format settings : CABAC / 4 Ref Frames
Format settings, CABAC : Yes
Format settings, Reference frames : 4 frames
Codec ID : V_MPEG4/ISO/AVC
Duration : 22 min 53 s
Bit rate mode : Variable
Bit rate : 1 197 kb/s
Maximum bit rate : 1 800 kb/s
Width : 512 pixels
Height : 384 pixels
Display aspect ratio : 4:3
Frame rate mode : Constant
Frame rate : 23.976 (24000/1001) FPS
Color space : YUV
Chroma subsampling : 4:2:0
Bit depth : 8 bits
Scan type : Progressive
Bits/(Pixel*Frame) : 0.254
Stream size : 196 MiB (76%)
Default : Yes
Forced : No
Color range : Limited
Matrix coefficients : BT.601

Audio #1
ID : 2
Format : AAC LC
Format/Info : Advanced Audio Codec Low Complexity
Codec ID : A_AAC-2
Duration : 22 min 53 s
Bit rate : 125 kb/s
Channel(s) : 2 channels
Channel layout : L R
Sampling rate : 48.0 kHz
Frame rate : 46.875 FPS (1024 SPF)
Compression mode : Lossy
Stream size : 20.5 MiB (8%)
Title : English
Language : English
Default : Yes
Forced : No

Audio #2
ID : 3
Format : AAC LC
Format/Info : Advanced Audio Codec Low Complexity
Codec ID : A_AAC-2
Duration : 22 min 53 s
Bit rate : 125 kb/s
Channel(s) : 2 channels
Channel layout : L R
Sampling rate : 48.0 kHz
Frame rate : 46.875 FPS (1024 SPF)
Compression mode : Lossy
Stream size : 20.5 MiB (8%)
Title : Dutch
Language : Dutch
Default : No
Forced : No

Audio #3
ID : 4
Format : AAC LC
Format/Info : Advanced Audio Codec Low Complexity
Codec ID : A_AAC-2
Duration : 22 min 53 s
Bit rate : 125 kb/s
Channel(s) : 2 channels
Channel layout : L R
Sampling rate : 48.0 kHz
Frame rate : 46.875 FPS (1024 SPF)
Compression mode : Lossy
Stream size : 20.5 MiB (8%)
Title : Spanish
Language : Spanish
Default : No
Forced : No

Text
ID : 5
Format : UTF-8
Codec ID : S_TEXT/UTF8
Codec ID/Info : UTF-8 Plain Text
Duration : 22 min 17 s
Bit rate : 69 b/s
Count of elements : 385
Stream size : 11.4 KiB (0%)
Title : English
Language : English
Default : No
Forced : No

 

720p.x265-BvS

 

1080p.x265

 

Leave a Reply

Your email address will not be published. Required fields are marked *