24 All Season | 720p & 1080p Bluray x265-BvS

24

“24” is a TV thriller presented in “real time” with each minute of airtime that corresponds to a minute in the lives of the characters. “24” employs fast-paced and complex stories, and often contains unexpected plot twists. Though each day’s events typically revolve around thwarting an impending terrorist attack, each season is made up of various interwoven story threads. These may run for just one hour, but more usually run over several hours. These typically involve investigations of leads on terrorists, tracking suspects, and averting attacks. The exact objective of the day evolves over the course of the season as the antagonists adapt, contingencies arise, and larger scale operations unfold.

Links: HOMEPAGE – TV.com

Note: In English with English Selectable Subtitles

DOWNLOAD

VIP (GOOGLE DRIVE)

This content is reserved for registered users. BUY A VIP MEMBERSHIP HERE and login to be able to see it.

FREE

  • SEASON 1: 720p x265 (ONLY VIP)
  • SEASON 2: 720p x265 (ONLY VIP)
  • SEASON 3: 720p x265 (ONLY VIP)
  • SEASON 4: 720p x265 (ONLY VIP)
  • SEASON 5: 720p x265 (ONLY VIP)
  • SEASON 6: 720p x265 (ONLY VIP)
  • SEASON 7: 720p x265 (ONLY VIP)
  • SEASON 8: 720p x265 (ONLY VIP)
  • SEASON 9: 720p x265 (ONLY VIP)

NFO

720p.x265-BvS

General
Unique ID : 310618105961247161464638728915355237931 (0xE9AEDF03F22DAF28CC85BE226264FE2B)
Complete name : 24.2001.S02E01.720p.BluRay.x265.mkv
Format : Matroska
Format version : Version 4
File size : 266 MiB
Duration : 51 min 55 s
Overall bit rate : 716 kb/s
Encoded date : UTC 2020-08-02 16:09:58
Writing application : mkvmerge v44.0.0 (‘Domino’) 64-bit
Writing library : libebml v1.3.10 + libmatroska v1.5.2 / Lavf58.29.100

Video
ID : 1
Format : HEVC
Format/Info : High Efficiency Video Coding
Format profile : [email protected]@Main
Codec ID : V_MPEGH/ISO/HEVC
Duration : 51 min 55 s
Bit rate : 651 kb/s
Width : 1 280 pixels
Height : 720 pixels
Display aspect ratio : 16:9
Frame rate mode : Constant
Frame rate : 23.976 (24000/1001) FPS
Color space : YUV
Chroma subsampling : 4:2:0
Bit depth : 8 bits
Bits/(Pixel*Frame) : 0.029
Stream size : 242 MiB (91%)
Default : Yes
Forced : No
Color range : Limited
Color primaries : BT.709
Transfer characteristics : BT.709
Matrix coefficients : BT.709

Audio
ID : 2
Format : AAC LC SBR
Format/Info : Advanced Audio Codec Low Complexity with Spectral Band Replication
Commercial name : HE-AAC
Format settings : Explicit
Codec ID : A_AAC-2
Duration : 51 min 55 s
Bit rate : 62.7 kb/s
Channel(s) : 2 channels
Channel layout : L R
Sampling rate : 48.0 kHz
Frame rate : 23.438 FPS (2048 SPF)
Compression mode : Lossy
Stream size : 23.3 MiB (9%)
Default : Yes
Forced : No

Text
ID : 3
Format : UTF-8
Codec ID : S_TEXT/UTF8
Codec ID/Info : UTF-8 Plain Text
Duration : 48 min 42 s
Bit rate : 65 b/s
Count of elements : 538
Stream size : 23.4 KiB (0%)
Default : Yes
Forced : No

Leave a Reply

Your email address will not be published. Required fields are marked *