Titans All Season | 720p & 1080p NF WEBRip x265-BvS

Titans follows young heroes from across the DC Universe as they come of age and find belonging in a gritty take on the classic Teen Titans franchise. Dick Grayson and Rachel Roth, a special young girl possessed by a strange darkness, get embroiled in a conspiracy that could bring Hell on Earth. Joining them along the way are the hot-headed Starfire and loveable Beast Boy. Together they become a surrogate family and team of heroes.

Links: HOMEPAGE – TVDB

Note: In English with English Subtitles

DOWNLOAD

VIP (GOOGLE DRIVE)

This content is reserved for registered users. Sign up here o login to be able to see it.

FREE

  • SEASON 1: 720p x265 (ONLY VIP)
  • SEASON 1: 1080p x265 (ONLY VIP)
  • SEASON 2: 720p x265 (ONLY VIP)
  • SEASON 2: 1080p x265 (ONLY VIP)

NFO

WEBRip.x264-ION10

 

720p.x265-BvS

General
Unique ID : 155586276683609110759721757575823258572 (0x750CD3B10898A1A6439A6447DC2073CC)
Complete name : Titans.2018.S01E01.Titans.720p.10bit.WEBRip.2CH.x265.HEVC.mkv
Format : Matroska
Format version : Version 4
File size : 206 MiB
Duration : 50 min 42 s
Overall bit rate : 569 kb/s
Movie name : PSArips.com | Titans.2018.S01E01.Titans.720p.10bit.WEBRip.2CH.x265.HEVC-PSA
Encoded date : UTC 2018-10-13 14:09:08
Writing application : mkvmerge v27.0.0 (‘Metropolis’) 64-bit
Writing library : libebml v1.3.6 + libmatroska v1.4.9

Video
ID : 1
Format : HEVC
Format/Info : High Efficiency Video Coding
Format profile : Main [email protected]@Main
Codec ID : V_MPEGH/ISO/HEVC
Duration : 50 min 42 s
Bit rate : 492 kb/s
Width : 1 280 pixels
Height : 640 pixels
Display aspect ratio : 2.000
Frame rate mode : Constant
Frame rate : 23.976 (24000/1001) FPS
Color space : YUV
Chroma subsampling : 4:2:0
Bit depth : 10 bits
Bits/(Pixel*Frame) : 0.025
Stream size : 178 MiB (86%)
Default : Yes
Forced : No

Audio
ID : 2
Format : AAC LC SBR
Format/Info : Advanced Audio Codec Low Complexity with Spectral Band Replication
Commercial name : HE-AAC
Format settings : Explicit
Codec ID : A_AAC-2
Duration : 50 min 42 s
Bit rate : 75.7 kb/s
Channel(s) : 2 channels
Channel layout : L R
Sampling rate : 48.0 kHz
Frame rate : 23.438 FPS (2048 SPF)
Compression mode : Lossy
Delay relative to video : 23 ms
Stream size : 27.4 MiB (13%)
Language : English
Default : Yes
Forced : No

Text
ID : 3
Format : UTF-8
Codec ID : S_TEXT/UTF8
Codec ID/Info : UTF-8 Plain Text
Duration : 48 min 37 s
Bit rate : 36 b/s
Count of elements : 516
Stream size : 13.0 KiB (0%)
Language : English
Default : Yes
Forced : No

1080p.x265-BvS

General
Unique ID : 202154614437476216387378484942526921661 (0x981590023C6CB5737FFE4EDF8F52BBBD)
Complete name : Titans.2018.S01E01.Titans.1080p.10bit.WEBRip.2CH.x265.HEVC.mkv
Format : Matroska
Format version : Version 4
File size : 475 MiB
Duration : 50 min 42 s
Overall bit rate : 1 311 kb/s
Movie name : PSArips.com | Titans.2018.S01E01.Titans.1080p.10bit.WEBRip.2CH.x265.HEVC-PSA
Encoded date : UTC 2018-10-13 16:39:49
Writing application : mkvmerge v27.0.0 (‘Metropolis’) 64-bit
Writing library : libebml v1.3.6 + libmatroska v1.4.9

Video
ID : 1
Format : HEVC
Format/Info : High Efficiency Video Coding
Format profile : Main [email protected]@Main
Codec ID : V_MPEGH/ISO/HEVC
Duration : 50 min 42 s
Bit rate : 1 233 kb/s
Width : 1 920 pixels
Height : 960 pixels
Display aspect ratio : 2.000
Frame rate mode : Constant
Frame rate : 23.976 (24000/1001) FPS
Color space : YUV
Chroma subsampling : 4:2:0
Bit depth : 10 bits
Bits/(Pixel*Frame) : 0.028
Stream size : 447 MiB (94%)
Default : Yes
Forced : No

Audio
ID : 2
Format : AAC LC SBR
Format/Info : Advanced Audio Codec Low Complexity with Spectral Band Replication
Commercial name : HE-AAC
Format settings : Explicit
Codec ID : A_AAC-2
Duration : 50 min 42 s
Bit rate : 75.7 kb/s
Channel(s) : 2 channels
Channel layout : L R
Sampling rate : 48.0 kHz
Frame rate : 23.438 FPS (2048 SPF)
Compression mode : Lossy
Delay relative to video : 23 ms
Stream size : 27.4 MiB (6%)
Language : English
Default : Yes
Forced : No

Text
ID : 3
Format : UTF-8
Codec ID : S_TEXT/UTF8
Codec ID/Info : UTF-8 Plain Text
Duration : 48 min 37 s
Bit rate : 36 b/s
Count of elements : 516
Stream size : 13.0 KiB (0%)
Language : English
Default : Yes
Forced : No

Leave a Reply

Your email address will not be published. Required fields are marked *