Time 2020 1080p AMZN WEBRip 6CH HEVC x265-BvS [G.DRIVE]

Time.2020.1080p.AMZN.WEBRip.x265

Fox Rich is a fighter. The entrepreneur, abolitionist and mother of six boys has spent the last two decades campaigning for the release of her husband, Rob G. Rich, who is serving a 60-year sentence for a robbery they both committed in the early 90s in a moment of desperation. Combining the video diaries Fox has recorded for Rob over the years with intimate glimpses of her present-day life, director Garrett Bradley paints a mesmerizing portrait of the resilience and radical love necessary to prevail over the endless separations of the country’s prison-industrial complex.

Links: iMDB | Trailer

Time.2020.1080p.AMZN.WEBRip.x265-BvS
MKV-HEVC | 1920×1040 | English | Subs.ENG/FRE/GER/SPA | AAC 5.1 | 1.33GB

This content is reserved for registered users. Sign up here o login to be able to see it.

MEGA – 1FICHIER

1080p.WEBRip.6CH.HEVC.x265-BvS

General
Unique ID : 274831650415662065937180067995714997936 (0xCEC2A6887C0AE92379723C4779A64EB0)
Complete name : Time.2020.1080p.amzn.web-dl.x265-BvS.mkv
Format : Matroska
Format version : Version 4
File size : 1.33 GiB
Duration : 1 h 21 min
Overall bit rate : 2 340 kb/s
Movie name : BvSRips
Encoded date : UTC 2020-10-16 18:55:09
Writing application : mkvmerge v46.0.0 (‘No Deeper Escape’) 64-bit
Writing library : libebml v1.3.10 + libmatroska v1.5.2

Video
ID : 1
Format : HEVC
Format/Info : High Efficiency Video Coding
Format profile : [email protected]@Main
Codec ID : V_MPEGH/ISO/HEVC
Duration : 1 h 21 min
Bit rate : 2 082 kb/s
Width : 1 920 pixels
Height : 1 040 pixels
Display aspect ratio : 1.85:1
Frame rate mode : Constant
Frame rate : 23.976 (24000/1001) FPS
Color space : YUV
Chroma subsampling : 4:2:0
Bit depth : 8 bits
Bits/(Pixel*Frame) : 0.043
Stream size : 1.18 GiB (89%)
Writing library : x265 1.5:[Windows][GCC 4.7.0][32 bit] Encoding settings : wpp / ctu=64 / tu-intra-depth=1 / tu-inter-depth=1 / me=1 / subme=2 / merange=57 / no-rect / no-amp / max-merge=2 / temporal-mvp / early-skip / no-fast-cbf / rdpenalty=0 / no-tskip / no-tskip-fast / strong-intra-smoothing / no-lossless / no-cu-lossless / no-constrained-intra / fast-intra / open-gop / interlace=0 / keyint=240 / min-keyint=24 / scenecut=40 / rc-lookahead=15 / bframes=4 / bframe-bias=0 / b-adapt=0 / ref=1 / weightp / no-weightb / aq-mode=0 / aq-strength=0.00 / cbqpoffs=0 / crqpoffs=0 / rd=2 / psy-rd=0.00 / psy-rdoq=0.00 / signhide / lft / sao / no-sao-non-deblock / b-pyramid / no-cutree / rc=crf / crf=25.0 / qcomp=0.60 / qpmin=0 / qpmax=51 / qpstep=4 / ipratio=1.40 / pbratio=1.30
Default : Yes
Forced : No
Color range : Limited
Color primaries : BT.709
Transfer characteristics : BT.709
Matrix coefficients : BT.709

Audio
ID : 2
Format : AAC LC SBR
Format/Info : Advanced Audio Codec Low Complexity with Spectral Band Replication
Commercial name : HE-AAC
Format settings : NBC
Codec ID : A_AAC-5
Duration : 1 h 21 min
Bit rate : 256 kb/s
Channel(s) : 6 channels
Channel layout : C L R Ls Rs LFE
Sampling rate : 48.0 kHz
Frame rate : 23.438 FPS (2048 SPF)
Compression mode : Lossy
Stream size : 149 MiB (11%)
Language : English
Default : Yes
Forced : No

Text
ID : 3
Format : ASS
Codec ID : S_TEXT/ASS
Codec ID/Info : Advanced Sub Station Alpha
Duration : 4 s 500 ms
Bit rate : 149 b/s
Count of elements : 1
Compression mode : Lossless
Stream size : 84.0 Bytes (0%)
Default : Yes
Forced : No

We choose a different approach. Will you support it? I am BvSRips, I make my own rips of movies and series in 1080p x265 in reduced size for those users who do not have a high speed internet. We believe that everyone should be able to enjoy TV or movie entertainment, but what if it can't be seen in my country? What if you don't have subtitles? Do I have to pay $ 10 or $ 15 on each streaming platform? That is why this website was born by sharing files on free servers (mega and 1fichier). We do not place advertising or popups because they are intrusive for the user, we want you to enjoy this website. But also the website and the tools used consume an expense that we assume and that now you can support us.You can become a VIP member and download without limit, read more here. I hope I can count on your help.

You may also like...

Leave a Reply

Your email address will not be published. Required fields are marked *