The Young Pope All Season | 720p & 1080p Bluray x265-BvS

Lenny Belardo, the youngest and first American Pope in the history of the Church, must establish his new papacy and navigate the power struggles of the closed, secretive Vatican.

Links: HOMEPAGE – TV.com

Note: In English with English Selectable Subtitles

DOWNLOAD

VIP (GOOGLE DRIVE)

This content is reserved for registered users. Sign up here o login to be able to see it.

FREE

  • SEASON 1: 720p x265 (ONLY VIP)

NFO

720p.x265-BvS

General
Unique ID : 177587506213913578233907595106012642013 (0x859A1C0E868DA467A23F985D6E083ADD)
Complete name : The.Young.Pope.S01E01.720p.HDTV.2CH.x265.HEVC.mkv
Format : Matroska
Format version : Version 4
File size : 257 MiB
Duration : 54 min 32 s
Overall bit rate : 659 kb/s
Movie name : The.Young.Pope.S01E01.720p.HDTV.2CH.x265.HEVC-PSA
Encoded date : UTC 2016-10-31 03:37:42
Writing application : mkvmerge v9.5.0 (‘Quiet Fire’) 64bit
Writing library : libebml v1.3.4 + libmatroska v1.4.5

Video
ID : 1
Format : HEVC
Format/Info : High Efficiency Video Coding
Format profile : [email protected]@Main
Codec ID : V_MPEGH/ISO/HEVC
Duration : 54 min 32 s
Bit rate : 586 kb/s
Width : 1 280 pixels
Height : 720 pixels
Display aspect ratio : 16:9
Frame rate mode : Constant
Frame rate : 25.000 FPS
Color space : YUV
Chroma subsampling : 4:2:0
Bit depth : 8 bits
Bits/(Pixel*Frame) : 0.025
Stream size : 229 MiB (89%)
Default : Yes
Forced : No
Color range : Limited
Color primaries : BT.709
Transfer characteristics : BT.709
Matrix coefficients : BT.709

Audio
ID : 2
Format : AAC LC SBR
Format/Info : Advanced Audio Codec Low Complexity with Spectral Band Replication
Commercial name : HE-AAC
Format settings : Explicit
Codec ID : A_AAC-2
Duration : 54 min 31 s
Bit rate : 72.0 kb/s
Channel(s) : 2 channels
Channel layout : L R
Sampling rate : 48.0 kHz
Frame rate : 23.438 FPS (2048 SPF)
Compression mode : Lossy
Delay relative to video : 23 ms
Stream size : 27.7 MiB (11%)
Default : Yes
Forced : No

Text
ID : 3
Format : UTF-8
Codec ID : S_TEXT/UTF8
Codec ID/Info : UTF-8 Plain Text
Duration : 53 min 22 s
Bit rate : 57 b/s
Count of elements : 663
Stream size : 22.4 KiB (0%)
Default : Yes
Forced : No

Leave a Reply

Your email address will not be published. Required fields are marked *