The Wizard of Oz (1939) 75th Anniv 1080p BluRay x265 HEVC 10bit AAC 5.1 Tigole [G.DRIVE]

The-Wizard-of-Oz-(1939)-75th-Anniv-(1080p-BluRay-x265-HEVC-10bit-AAC-5.1-Tigole)

Dorothy Gale is swept away from a farm in Kansas to a magical land of Oz in a tornado and embarks on a quest with her new friends to see the Wizard who can help her return home to Kansas and help her friends as well.

Links: iMDB Trailer

The Wizard of Oz (1939) 75th Anniv 1080p BluRay x265 HEVC 10bit AAC 5.1 Tigole
MKV-HEVC | 1480×1080 | English | Subs.ENG/GER/FRE/SPA | AAC 5.1 | 4.11GB

This content is reserved for registered users. Sign up here o login to be able to see it.

MEGA – 1FICHIER

NFO

General
Unique ID : 24486330193556587121551114942338792961 (0x126BE549A1E9D59E2E87F4356BA77E01)
Complete name : The Wizard of Oz (1939) 75th Anniv (1080p x265 10bit Tigole).mkv
Format : Matroska
Format version : Version 4
File size : 4.11 GiB
Duration : 1 h 41 min
Overall bit rate : 5 780 kb/s
Movie name : The Wizard of Oz 75th Anniversary
Encoded date : UTC 2018-03-13 05:36:54
Writing application : mkvmerge v20.0.0 (‘I Am The Sun’) 64-bit
Writing library : libebml v1.3.5 + libmatroska v1.4.8

Video
ID : 1
Format : HEVC
Format/Info : High Efficiency Video Coding
Format profile : Main [email protected]@Main
Codec ID : V_MPEGH/ISO/HEVC
Duration : 1 h 41 min
Bit rate : 5 275 kb/s
Width : 1 480 pixels
Height : 1 080 pixels
Display aspect ratio : 1.370
Frame rate mode : Constant
Frame rate : 23.976 (24000/1001) FPS
Color space : YUV
Chroma subsampling : 4:2:0
Bit depth : 10 bits
Bits/(Pixel*Frame) : 0.138
Stream size : 3.75 GiB (91%)
Writing library : x265 2.7+1-2aa737a99f51:[Windows][GCC 7.3.0][64 bit] 10bit
Encoding settings : cpuid=1173503 / frame-threads=3 / numa-pools=8 / wpp / no-pmode / no-pme / no-psnr / no-ssim / log-level=2 / input-csp=1 / input-res=1480×1080 / interlace=0 / total-frames=146425 / level-idc=0 / high-tier=1 / uhd-bd=0 / ref=4 / no-allow-non-conformance / no-repeat-headers / annexb / no-aud / no-hrd / info / hash=0 / no-temporal-layers / open-gop / min-keyint=23 / keyint=250 / gop-lookahead=0 / bframes=4 / b-adapt=2 / b-pyramid / bframe-bias=0 / rc-lookahead=25 / lookahead-slices=4 / scenecut=40 / radl=0 / no-intra-refresh / ctu=64 / min-cu-size=8 / rect / no-amp / max-tu-size=32 / tu-inter-depth=1 / tu-intra-depth=1 / limit-tu=0 / rdoq-level=2 / dynamic-rd=0.00 / no-ssim-rd / signhide / no-tskip / nr-intra=0 / nr-inter=0 / no-constrained-intra / strong-intra-smoothing / max-merge=3 / limit-refs=3 / limit-modes / me=3 / subme=3 / merange=57 / temporal-mvp / weightp / no-weightb / no-analyze-src-pics / deblock=0:0 / sao / no-sao-non-deblock / rd=4 / no-early-skip / rskip / no-fast-intra / no-tskip-fast / no-cu-lossless / no-b-intra / no-splitrd-skip / rdpenalty=0 / psy-rd=2.00 / psy-rdoq=1.00 / no-rd-refine / no-lossless / cbqpoffs=0 / crqpoffs=0 / rc=abr / bitrate=5275 / qcomp=0.60 / qpstep=4 / stats-write=0 / stats-read=2 / cplxblur=20.0 / qblur=0.5 / ipratio=1.40 / pbratio=1.30 / aq-mode=3 / aq-strength=1.00 / cutree / zone-count=0 / no-strict-cbr / qg-size=32 / no-rc-grain / qpmax=69 / qpmin=0 / no-const-vbv / sar=0 / overscan=0 / videoformat=5 / range=0 / colorprim=2 / transfer=2 / colormatrix=2 / chromaloc=0 / display-window=0 / max-cll=0,0 / min-luma=0 / max-luma=1023 / log2-max-poc-lsb=8 / vui-timing-info / vui-hrd-info / slices=1 / no-opt-qp-pps / no-opt-ref-list-length-pps / multi-pass-opt-rps / scenecut-bias=0.05 / no-opt-cu-delta-qp / aq-motion / no-hdr / no-hdr-opt / no-dhdr10-opt / analysis-reuse-level=5 / scale-factor=0 / refine-intra=0 / refine-inter=0 / refine-mv=0 / no-limit-sao / ctu-info=0 / no-lowpass-dct / refine-mv-type=0 / copy-pic=1
Default : Yes
Forced : No

Audio #1
ID : 2
Format : AAC LC
Format/Info : Advanced Audio Codec Low Complexity
Codec ID : A_AAC-2
Duration : 1 h 41 min
Bit rate : 276 kb/s
Channel(s) : 6 channels
Channel layout : C L R Ls Rs LFE
Sampling rate : 48.0 kHz
Frame rate : 46.875 FPS (1024 SPF)
Compression mode : Lossy
Delay relative to video : 20 ms
Stream size : 201 MiB (5%)
Language : English
Default : Yes
Forced : No

Audio #2
ID : 3
Format : AAC LC SBR
Format/Info : Advanced Audio Codec Low Complexity with Spectral Band Replication
Commercial name : HE-AAC
Format settings : Explicit
Codec ID : A_AAC-2
Duration : 1 h 41 min
Bit rate : 66.2 kb/s
Channel(s) : 2 channels
Channel layout : L R
Sampling rate : 48.0 kHz
Frame rate : 23.438 FPS (2048 SPF)
Compression mode : Lossy
Delay relative to video : 40 ms
Stream size : 47.8 MiB (1%)
Title : Commentary
Language : English
Default : No
Forced : No

Audio #3
ID : 4
Format : AAC LC
Format/Info : Advanced Audio Codec Low Complexity
Codec ID : A_AAC-2
Duration : 1 h 41 min
Bit rate : 82.4 kb/s
Channel(s) : 1 channel
Channel layout : C
Sampling rate : 48.0 kHz
Frame rate : 46.875 FPS (1024 SPF)
Compression mode : Lossy
Delay relative to video : 20 ms
Stream size : 60.0 MiB (1%)
Title : Isolated Score
Language : English
Default : No
Forced : No

Text #1
ID : 5
Format : VobSub
Muxing mode : zlib
Codec ID : S_VOBSUB
Codec ID/Info : Picture based subtitle format used on DVDs
Duration : 1 h 39 min
Bit rate : 12.5 kb/s
Count of elements : 1487
Stream size : 8.89 MiB (0%)
Language : English
Default : No
Forced : No

Text #2
ID : 6
Format : VobSub
Muxing mode : zlib
Codec ID : S_VOBSUB
Codec ID/Info : Picture based subtitle format used on DVDs
Duration : 1 h 41 min
Bit rate : 9 208 b/s
Count of elements : 1426
Stream size : 6.68 MiB (0%)
Language : Chinese
Default : No
Forced : No

Text #3
ID : 7
Format : VobSub
Muxing mode : zlib
Codec ID : S_VOBSUB
Codec ID/Info : Picture based subtitle format used on DVDs
Duration : 1 h 41 min
Bit rate : 14.0 kb/s
Count of elements : 1698
Stream size : 10.1 MiB (0%)
Title : Commentary
Language : Chinese
Default : No
Forced : No

Text #4
ID : 8
Format : VobSub
Muxing mode : zlib
Codec ID : S_VOBSUB
Codec ID/Info : Picture based subtitle format used on DVDs
Duration : 1 h 40 min
Bit rate : 7 655 b/s
Count of elements : 809
Stream size : 5.48 MiB (0%)
Language : Danish
Default : No
Forced : No

Text #5
ID : 9
Format : VobSub
Muxing mode : zlib
Codec ID : S_VOBSUB
Codec ID/Info : Picture based subtitle format used on DVDs
Duration : 1 h 40 min
Bit rate : 7 718 b/s
Count of elements : 833
Stream size : 5.53 MiB (0%)
Language : Dutch
Default : No
Forced : No

Text #6
ID : 10
Format : VobSub
Muxing mode : zlib
Codec ID : S_VOBSUB
Codec ID/Info : Picture based subtitle format used on DVDs
Duration : 1 h 41 min
Bit rate : 7 355 b/s
Count of elements : 818
Stream size : 5.33 MiB (0%)
Language : Finnish
Default : No
Forced : No

Text #7
ID : 11
Format : VobSub
Muxing mode : zlib
Codec ID : S_VOBSUB
Codec ID/Info : Picture based subtitle format used on DVDs
Duration : 1 h 41 min
Bit rate : 9 526 b/s
Count of elements : 1289
Stream size : 6.91 MiB (0%)
Language : French
Default : No
Forced : No

Text #8
ID : 12
Format : VobSub
Muxing mode : zlib
Codec ID : S_VOBSUB
Codec ID/Info : Picture based subtitle format used on DVDs
Duration : 1 h 40 min
Bit rate : 12.3 kb/s
Count of elements : 1530
Stream size : 8.81 MiB (0%)
Language : German
Default : No
Forced : No

Text #9
ID : 13
Format : VobSub
Muxing mode : zlib
Codec ID : S_VOBSUB
Codec ID/Info : Picture based subtitle format used on DVDs
Duration : 1 h 40 min
Bit rate : 93 b/s
Count of elements : 9
Stream size : 68.6 KiB (0%)
Title : Forced
Language : German
Default : No
Forced : No

Text #10
ID : 14
Format : VobSub
Muxing mode : zlib
Codec ID : S_VOBSUB
Codec ID/Info : Picture based subtitle format used on DVDs
Duration : 1 h 41 min
Bit rate : 8 672 b/s
Count of elements : 1273
Stream size : 6.29 MiB (0%)
Language : Italian
Default : No
Forced : No

Text #11
ID : 15
Format : VobSub
Muxing mode : zlib
Codec ID : S_VOBSUB
Codec ID/Info : Picture based subtitle format used on DVDs
Duration : 1 h 40 min
Bit rate : 7 219 b/s
Count of elements : 779
Stream size : 5.17 MiB (0%)
Language : Norwegian Bokmal
Default : No
Forced : No

Text #12
ID : 16
Format : VobSub
Muxing mode : zlib
Codec ID : S_VOBSUB
Codec ID/Info : Picture based subtitle format used on DVDs
Duration : 1 h 41 min
Bit rate : 11.4 kb/s
Count of elements : 1417
Stream size : 8.24 MiB (0%)
Language : Portuguese
Default : No
Forced : No

Text #13
ID : 17
Format : VobSub
Muxing mode : zlib
Codec ID : S_VOBSUB
Codec ID/Info : Picture based subtitle format used on DVDs
Duration : 1 h 41 min
Bit rate : 10.1 kb/s
Count of elements : 1390
Stream size : 7.34 MiB (0%)
Language : Spanish
Default : No
Forced : No

Text #14
ID : 18
Format : VobSub
Muxing mode : zlib
Codec ID : S_VOBSUB
Codec ID/Info : Picture based subtitle format used on DVDs
Duration : 1 h 41 min
Bit rate : 6 945 b/s
Count of elements : 716
Stream size : 5.04 MiB (0%)
Language : Swedish
Default : No
Forced : No

Menu
00:00:00.000 : en:Chapter 01
00:01:36.096 : en:Chapter 02
00:01:56.116 : en:Chapter 03
00:05:49.223 : en:Chapter 04
00:08:02.398 : en:Chapter 05
00:10:21.120 : en:Chapter 06
00:11:02.828 : en:Chapter 07
00:12:47.725 : en:Chapter 08
00:15:06.405 : en:Chapter 09
00:17:01.520 : en:Chapter 10
00:19:26.790 : en:Chapter 11
00:22:59.002 : en:Chapter 12
00:23:43.630 : en:Chapter 13
00:24:52.991 : en:Chapter 14
00:27:35.487 : en:Chapter 15
00:28:03.640 : en:Chapter 16
00:29:06.745 : en:Chapter 17
00:31:05.822 : en:Chapter 18
00:32:43.962 : en:Chapter 19
00:33:16.995 : en:Chapter 20
00:34:04.042 : en:Chapter 21
00:36:34.901 : en:Chapter 22
00:38:48.826 : en:Chapter 23
00:39:16.854 : en:Chapter 24
00:40:29.677 : en:Chapter 25
00:42:49.567 : en:Chapter 26
00:45:55.711 : en:Chapter 27
00:47:00.651 : en:Chapter 28
00:47:56.874 : en:Chapter 29
00:49:05.108 : en:Chapter 30
00:52:09.626 : en:Chapter 31
00:52:51.418 : en:Chapter 32
00:53:53.939 : en:Chapter 33
00:57:20.437 : en:Chapter 34
00:58:23.833 : en:Chapter 35
01:00:34.631 : en:Chapter 36
01:02:14.397 : en:Chapter 37
01:03:59.335 : en:Chapter 38
01:08:45.996 : en:Chapter 39
01:12:45.152 : en:Chapter 40
01:14:31.467 : en:Chapter 41
01:16:11.275 : en:Chapter 42
01:17:25.682 : en:Chapter 43
01:20:39.835 : en:Chapter 44
01:23:20.203 : en:Chapter 45
01:24:51.169 : en:Chapter 46
01:25:55.400 : en:Chapter 47
01:26:59.255 : en:Chapter 48
01:28:23.548 : en:Chapter 49
01:29:23.608 : en:Chapter 50
01:33:48.372 : en:Chapter 51
01:35:51.245 : en:Chapter 52
01:37:33.430 : en:Chapter 53
01:38:40.080 : en:Chapter 54
01:41:23.410 : en:Chapter 55

 

We choose a different approach. Will you support it? I am BvSRips, I make my own rips of movies and series in 1080p x265 in reduced size for those users who do not have a high speed internet. We believe that everyone should be able to enjoy TV or movie entertainment, but what if it can't be seen in my country? What if you don't have subtitles? Do I have to pay $ 10 or $ 15 on each streaming platform? That is why this website was born by sharing files on free servers (mega and 1fichier). We do not place advertising or popups because they are intrusive for the user, we want you to enjoy this website. But also the website and the tools used consume an expense that we assume and that now you can support us.You can become a VIP member and download without limit, read more here. I hope I can count on your help.

You may also like...

Leave a Reply

Your email address will not be published. Required fields are marked *